Wraith 2017 1080p WEB-DL DD5.1 H264-FGT

Title: Wraith
Year: 2017
Time: 99 min
Genre: Horror / Mystery / Thriller
Directed by: Michael O. Sajbel
Starring: Jackson Hurst / Ali Hillis / Lance Henriksen / Jensen Buchanan / Christopher Chisholm
IMDB Rating: 3.8
IMDB URL: http://www.imdb.com/title/tt5637736/
Plot:
After living in an old mansion for almost 10 years a family suddenly discovers a ghost-like presence trying to communicate with them. A super-natural thriller.

Video
ID                                       : 1
Format                                   : AVC
Format/Info                              : Advanced Video Codec
Format profile                           : [email protected]
Format settings                          : CABAC / 4 Ref Frames
Format settings, CABAC                   : Yes
Format settings, ReFrames                : 4 frames
Codec ID                                 : V_MPEG4/ISO/AVC
Duration                                 : 1 h 39 min
Bit rate                                 : 5 006 kb/s
Width                                    : 1 904 pixels
Height                                   : 1 064 pixels
Display aspect ratio                     : 16:9
Frame rate mode                          : Constant
Frame rate                               : 23.976 (24000/1001) FPS
Color space                              : YUV
Chroma subsampling                       : 4:2:0
Bit depth                                : 8 bits
Scan type                                : Progressive
Bits/(Pixel*Frame)                       : 0.103
Stream size                              : 3.49 GiB (93%)
Title                                    : Wraith.2017.1080p.WEB-DL.DD5.1.H.264-FGT
Language                                 : English
Default                                  : Yes
Forced                                   : No
Color range                              : Limited
Color primaries                          : BT.709
Transfer characteristics                 : BT.709
Matrix coefficients                      : BT.709

Audio
ID                                       : 2
Format                                   : AC-3
Format/Info                              : Audio Coding 3
Codec ID                                 : A_AC3
Duration                                 : 1 h 39 min
Bit rate mode                            : Constant
Bit rate                                 : 384 kb/s
Channel(s)                               : 6 channels
Channel positions                        : Front: L C R, Side: L R, LFE
Sampling rate                            : 48.0 kHz
Frame rate                               : 31.250 FPS (1536 SPF)
Bit depth                                : 16 bits
Compression mode                         : Lossy
Delay relative to video                  : -42 ms
Stream size                              : 274 MiB (7%)
Title                                    : Wraith.2017.1080p.WEB-DL.DD5.1.H.264-FGT
Language                                 : English
Service kind                             : Complete Main
Default                                  : Yes
Forced                                   : No

Text
ID                                       : 3
Format                                   : UTF-8
Codec ID                                 : S_TEXT/UTF8
Codec ID/Info                            : UTF-8 Plain Text
Duration                                 : 1 h 39 min
Bit rate                                 : 40 b/s
Count of elements                        : 1160
Stream size                              : 29.6 KiB (0%)
Language                                 : English
Default                                  : Yes
Forced                                   : No

Menu
00:00:00.000                             : en:After the Party
00:06:32.392                             : en:House For Sale
00:10:40.640                             : en:Happy Birthday
00:14:40.880                             : en:This House Is Haunted
00:19:19.158                             : en:Jack Arrives
00:23:16.395                             : en:Something On My Room
00:27:59.678                             : en:As Much Your History As Anyone\'s
00:30:20.819                             : en:Why Don\'t You Ask Her?
00:35:18.116                             : en:An Unwelcome Guest
00:44:00.638                             : en:Graffiti
00:48:01.879                             : enress In The Attic
00:51:00.057                             : en:Ride Home With Jack
00:56:08.365                             : en:I Want to Live!
00:58:28.505                             : en:What Is It You\'re Not Telling Me?
01:03:40.817                             : en:Lucy Was Right!
01:08:19.095                             : en:Something Bad Is Going To Happen
01:15:24.520                             : en:He Was Invited
01:18:22.698                             : en:It\'s Too Late For That
01:24:20.055                             : en:It\'s Bad Form
01:27:10.225                             : en:I Once Saw A Spider
01:30:46.441                             : en:It\'s Her
01:33:34.609                             : en:End Credits
01:39:33.968                             : en:Tag Scene

Screenshots



Download

https://subyshare.com/gy8vs742fyx4/Wraith.2017.1080p.WEB-DL.DD5.1.H.part1.rar.html
https://subyshare.com/eiwzwvcpqlri/Wraith.2017.1080p.WEB-DL.DD5.1.H.part2.rar.html
https://subyshare.com/fp2q06yzb9dr/Wraith.2017.1080p.WEB-DL.DD5.1.H.part3.rar.html