Wetlands 2017 1080p WEB-DL DD5.1 H264-FGT

Title: Wetlands
Year: 2017
Time: 98 min
Genre: Crime / Drama / Thriller
Directed by: Emanuele Della Valle
Starring: Anthony Mackie / Heather Graham / Jennifer Ehle / Adewale Akinnuoye-Agbaje / Christopher McDonald
IMDB Rating: 4.4
IMDB URL: http://www.imdb.com/title/tt5565254/
Plot:
A man attempts to make a new start in Atlantic City with the help of his daughter and a new business partner.

Video
ID                                       : 1
Format                                   : AVC
Format/Info                              : Advanced Video Codec
Format profile                           : [email protected]
Format settings                          : CABAC / 5 Ref Frames
Format settings, CABAC                   : Yes
Format settings, ReFrames                : 5 frames
Codec ID                                 : V_MPEG4/ISO/AVC
Duration                                 : 1 h 37 min
Bit rate                                 : 4 570 kb/s
Width                                    : 1 904 pixels
Height                                   : 804 pixels
Display aspect ratio                     : 2.35:1
Frame rate mode                          : Constant
Frame rate                               : 23.976 (24000/1001) FPS
Color space                              : YUV
Chroma subsampling                       : 4:2:0
Bit depth                                : 8 bits
Scan type                                : Progressive
Bits/(Pixel*Frame)                       : 0.125
Stream size                              : 3.13 GiB (92%)
Title                                    : Wetlands.2017.1080p.WEB-DL.DD5.1.H264-FGT
Language                                 : English
Default                                  : Yes
Forced                                   : No
Color range                              : Limited
Color primaries                          : BT.709
Transfer characteristics                 : BT.709
Matrix coefficients                      : BT.709

Audio
ID                                       : 2
Format                                   : AC-3
Format/Info                              : Audio Coding 3
Codec ID                                 : A_AC3
Duration                                 : 1 h 37 min
Bit rate mode                            : Constant
Bit rate                                 : 384 kb/s
Channel(s)                               : 6 channels
Channel positions                        : Front: L C R, Side: L R, LFE
Sampling rate                            : 48.0 kHz
Frame rate                               : 31.250 FPS (1536 SPF)
Bit depth                                : 16 bits
Compression mode                         : Lossy
Delay relative to video                  : -42 ms
Stream size                              : 269 MiB (8%)
Title                                    : Wetlands.2017.1080p.WEB-DL.DD5.1.H264-FGT
Language                                 : English
Service kind                             : Complete Main
Default                                  : Yes
Forced                                   : No

Text
ID                                       : 3
Format                                   : UTF-8
Codec ID                                 : S_TEXT/UTF8
Codec ID/Info                            : UTF-8 Plain Text
Duration                                 : 1 h 33 min
Bit rate                                 : 51 b/s
Count of elements                        : 1127
Stream size                              : 35.4 KiB (0%)
Language                                 : English
Default                                  : Yes
Forced                                   : No

Menu
00:00:00.000                             : en:Chapter 1
00:09:17.557                             : en:Chapter 2
00:19:11.150                             : en:Chapter 3
00:30:13.812                             : en:Chapter 4
00:40:48.446                             : en:Chapter 5
00:51:19.076                             : en:Chapter 6
01:00:50.647                             : en:Chapter 7
01:10:53.249                             : en:Chapter 8
01:22:06.922                             : en:Chapter 9
01:33:59.634                             : en:Chapter 10

Screenshots



Download

https://subyshare.com/nlpc8dz14uq7/Wetlands.2017.1080p.WEB-DL.DD5.1.part1.rar.html
https://subyshare.com/b52dkhiqw74j/Wetlands.2017.1080p.WEB-DL.DD5.1.part2.rar.html
https://subyshare.com/qmommi6t14f8/Wetlands.2017.1080p.WEB-DL.DD5.1.part3.rar.html