Under an Arctic Sky 2017 1080p AMZN WEBRip DD2.0 x264-AJP69

Title: Under an Arctic Sky
Year: 2017
Time: 39 min
Genre: Documentary / Short / Adventure / Sport
Directed by: Chris Burkard
Starring: Chris Burkard / Sam Hammer / Steve Hawk / Sigurdur Jonsson / Heidar Logi
IMDB Rating: 7.1
IMDB URL: http://www.imdb.com/title/tt6680858/
Plot:

Six surfers set sail along the frozen shores of Iceland as the worst storm in twenty-five years is about to arrive.

Video
ID                                       : 1
Format                                   : AVC
Format/Info                              : Advanced Video Codec
Format profile                           : [email protected]
Format settings                          : CABAC / 4 Ref Frames
Format settings, CABAC                   : Yes
Format settings, ReFrames                : 4 frames
Codec ID                                 : V_MPEG4/ISO/AVC
Duration                                 : 40 min 20 s
Bit rate mode                            : Variable
Bit rate                                 : 10.3 Mb/s
Maximum bit rate                         : 15.0 Mb/s
Width                                    : 1 920 pixels
Height                                   : 1 080 pixels
Display aspect ratio                     : 16:9
Frame rate mode                          : Constant
Frame rate                               : 23.976 (24000/1001) FPS
Color space                              : YUV
Chroma subsampling                       : 4:2:0
Bit depth                                : 8 bits
Scan type                                : Progressive
Bits/(Pixel*Frame)                       : 0.207
Stream size                              : 2.90 GiB (98%)
Default                                  : Yes
Forced                                   : No
Color range                              : Limited
Color primaries                          : BT.709
Transfer characteristics                 : BT.709
Matrix coefficients                      : BT.709

Audio
ID                                       : 2
Format                                   : E-AC-3
Format/Info                              : Enhanced Audio Coding 3
Codec ID                                 : A_EAC3
Duration                                 : 40 min 20 s
Bit rate mode                            : Constant
Bit rate                                 : 224 kb/s
Channel(s)                               : 2 channels
Channel positions                        : Front: L R
Sampling rate                            : 48.0 kHz
Frame rate                               : 187.500 FPS (256 SPF)
Compression mode                         : Lossy
Stream size                              : 64.6 MiB (2%)
Language                                 : English
Service kind                             : Complete Main
Default                                  : Yes
Forced                                   : No

Text
ID                                       : 3
Format                                   : UTF-8
Codec ID                                 : S_TEXT/UTF8
Codec ID/Info                            : UTF-8 Plain Text
Duration                                 : 39 min 49 s
Bit rate                                 : 66 b/s
Count of elements                        : 574
Stream size                              : 19.3 KiB (0%)
Language                                 : English
Default                                  : No
Forced                                   : No

Screenshots



Download

https://subyshare.com/1l5m3myvtk8i/Under.an.Arctic.Sky.2017.1080p.AMZN.WEBRip.DD2.0.part1.rar.html
https://subyshare.com/mrhjfmwrhc5k/Under.an.Arctic.Sky.2017.1080p.AMZN.WEBRip.DD2.0.part2.rar.html
https://subyshare.com/8aid84bywdx1/Under.an.Arctic.Sky.2017.1080p.AMZN.WEBRip.DD2.0.part3.rar.html