True Crimes 2016 1080p AMZN WEBRip DDP5.1 x264-NTG

Title: True Crimes
Year: 2016
Time: 92 min
Genre: Crime / Drama / Thriller
Directed by: Alexandros Avranas
Starring: Jim Carrey / Charlotte Gainsbourg / Marton Csokas / Kati Outinen / Vlad Ivanov
IMDB Rating: 4.9
IMDB URL: http://www.imdb.com/title/tt1901024/
Plot:
A murder investigation of a slain businessman turns to clues found in an author’s book about an eerily similar crime. Based on the 2008 article “True Crimes – A Postmodern Murder Mystery” by David Grann.

Video
ID                                       : 1
Format                                   : AVC
Format/Info                              : Advanced Video Codec
Format profile                           : [email protected]
Format settings                          : CABAC / 4 Ref Frames
Format settings, CABAC                   : Yes
Format settings, ReFrames                : 4 frames
Codec ID                                 : V_MPEG4/ISO/AVC
Duration                                 : 1 h 32 min
Bit rate mode                            : Variable
Bit rate                                 : 5 303 kb/s
Maximum bit rate                         : 15.0 Mb/s
Width                                    : 1 920 pixels
Height                                   : 800 pixels
Display aspect ratio                     : 2.40:1
Frame rate mode                          : Constant
Frame rate                               : 23.976 (24000/1001) FPS
Color space                              : YUV
Chroma subsampling                       : 4:2:0
Bit depth                                : 8 bits
Scan type                                : Progressive
Bits/(Pixel*Frame)                       : 0.144
Stream size                              : 3.44 GiB (89%)
Default                                  : Yes
Forced                                   : No
Color range                              : Limited
Color primaries                          : BT.709
Transfer characteristics                 : BT.709
Matrix coefficients                      : BT.709

Audio
ID                                       : 2
Format                                   : E-AC-3
Format/Info                              : Enhanced Audio Coding 3
Codec ID                                 : A_EAC3
Duration                                 : 1 h 32 min
Bit rate mode                            : Constant
Bit rate                                 : 640 kb/s
Channel(s)                               : 6 channels
Channel positions                        : Front: L C R, Side: L R, LFE
Sampling rate                            : 48.0 kHz
Frame rate                               : 187.500 FPS (256 SPF)
Compression mode                         : Lossy
Stream size                              : 426 MiB (11%)
Language                                 : English
Service kind                             : Complete Main
Default                                  : Yes
Forced                                   : No

Text #1
ID                                       : 3
Format                                   : UTF-8
Codec ID                                 : S_TEXT/UTF8
Codec ID/Info                            : UTF-8 Plain Text
Duration                                 : 1 h 27 min
Bit rate                                 : 31 b/s
Count of elements                        : 610
Stream size                              : 20.3 KiB (0%)
Language                                 : English
Default                                  : No
Forced                                   : No

Text #2
ID                                       : 4
Format                                   : UTF-8
Codec ID                                 : S_TEXT/UTF8
Codec ID/Info                            : UTF-8 Plain Text
Duration                                 : 1 h 30 min
Bit rate                                 : 33 b/s
Count of elements                        : 714
Stream size                              : 22.5 KiB (0%)
Title                                    : SDH
Language                                 : English
Default                                  : No
Forced                                   : No


Screenshots



Download

https://subyshare.com/ob8m8ezfhgpt/True.Crimes.2016.1080p.AMZN.WEBRip.DDP5.1.part1.rar.html
https://subyshare.com/5y462efqob4b/True.Crimes.2016.1080p.AMZN.WEBRip.DDP5.1.part2.rar.html
https://subyshare.com/p7frw769u0bc/True.Crimes.2016.1080p.AMZN.WEBRip.DDP5.1.part3.rar.html