Trouble No More 2017 1080p AMZN WEBRip DD2.0 x264-QOQ

Title: Trouble No More
Year: 2017
Time: 60 min
Genre: Documentary / Music
Directed by: Jennifer Lebeau
Starring: Mary Elizabeth Bridges / Tim Drummond / Bob Dylan / Gwen Evans / Jim Keltner
IMDB Rating: 7
IMDB URL: http://www.imdb.com/title/tt7309430/
Plot:
A Bob Dylan concert from his 1980 tour. Captures Dylan during his “Christian period” – Dylan found Christianity in the late-1970s and had released two Christian albums – “Slow Train Coming” and “Saved”. All the music in his concerts of the time was Christian music. Interspersed with the 1980 concert footage is a series of mini-sermons, with the preacher played by Michael Shannon. Written by grantss

Video
ID                                       : 1
Format                                   : AVC
Format/Info                              : Advanced Video Codec
Format profile                           : [email protected]
Format settings                          : CABAC / 4 Ref Frames
Format settings, CABAC                   : Yes
Format settings, ReFrames                : 4 frames
Codec ID                                 : V_MPEG4/ISO/AVC
Duration                                 : 59 min 26 s
Bit rate mode                            : Variable
Bit rate                                 : 10.4 Mb/s
Maximum bit rate                         : 15.0 Mb/s
Width                                    : 1 920 pixels
Height                                   : 1 080 pixels
Display aspect ratio                     : 16:9
Frame rate mode                          : Constant
Frame rate                               : 23.976 (24000/1001) FPS
Color space                              : YUV
Chroma subsampling                       : 4:2:0
Bit depth                                : 8 bits
Scan type                                : Progressive
Bits/(Pixel*Frame)                       : 0.209
Stream size                              : 4.32 GiB (98%)
Default                                  : Yes
Forced                                   : No
Color range                              : Limited
Color primaries                          : BT.709
Transfer characteristics                 : BT.709
Matrix coefficients                      : BT.709

Audio
ID                                       : 2
Format                                   : E-AC-3
Format/Info                              : Enhanced Audio Coding 3
Codec ID                                 : A_EAC3
Duration                                 : 59 min 26 s
Bit rate mode                            : Constant
Bit rate                                 : 224 kb/s
Channel(s)                               : 2 channels
Channel positions                        : Front: L R
Sampling rate                            : 48.0 kHz
Frame rate                               : 187.500 FPS (256 SPF)
Compression mode                         : Lossy
Stream size                              : 95.2 MiB (2%)
Language                                 : English
Service kind                             : Complete Main
Default                                  : Yes
Forced                                   : No

Text
ID                                       : 3
Format                                   : UTF-8
Codec ID                                 : S_TEXT/UTF8
Codec ID/Info                            : UTF-8 Plain Text
Duration                                 : 59 min 13 s
Bit rate                                 : 69 b/s
Count of elements                        : 852
Stream size                              : 30.0 KiB (0%)
Language                                 : English
Default                                  : No
Forced                                   : No

Screenshots



Download

https://subyshare.com/7nlx4789xed4/Trouble.No.More.2017.1080p.AMZN.WEBRip.DD2.0.part1.rar.html
https://subyshare.com/9kmr1d1p75ju/Trouble.No.More.2017.1080p.AMZN.WEBRip.DD2.0.part2.rar.html
https://subyshare.com/ww4h578bl6ma/Trouble.No.More.2017.1080p.AMZN.WEBRip.DD2.0.part3.rar.html
https://subyshare.com/nxjc2tvp59cu/Trouble.No.More.2017.1080p.AMZN.WEBRip.DD2.0.part4.rar.html