Time Toys 2016 1080p WEB-DL DD5.1 H264-FGT

Title: Time Toys
Year: 2016
Time: 87 min
Genre: Family / Sci-Fi
Directed by: Mark Rosman
Starring: Griffin Cleveland / J.J. Totah / Jaden Betts / Samuel Gilbert / Ed Begley Jr.
IMDB Rating: 4.7
IMDB URL: http://www.imdb.com/title/tt4815862/
Plot:
A group of middle school kids stumble upon a chest full of incredible toys from the future. The discovery takes them on an adventure using their newfound toys to save their neighborhood and ultimately the world from a maniacal corporate madman. In the process, these “loser” kids learn they have the qualities they thought they were lacking all along. Written by jh

Video
ID                                       : 1
Format                                   : AVC
Format/Info                              : Advanced Video Codec
Format profile                           : [email protected]
Format settings                          : CABAC / 5 Ref Frames
Format settings, CABAC                   : Yes
Format settings, ReFrames                : 5 frames
Codec ID                                 : V_MPEG4/ISO/AVC
Duration                                 : 1 h 26 min
Bit rate                                 : 4 513 kb/s
Width                                    : 1 920 pixels
Height                                   : 816 pixels
Display aspect ratio                     : 2.35:1
Frame rate mode                          : Constant
Frame rate                               : 23.976 (23976/1000) FPS
Color space                              : YUV
Chroma subsampling                       : 4:2:0
Bit depth                                : 8 bits
Scan type                                : Progressive
Bits/(Pixel*Frame)                       : 0.120
Stream size                              : 2.74 GiB (92%)
Title                                    : Time.Toys.2016.1080p.WEB-DL.DD5.1.H.264-FGT
Language                                 : English
Default                                  : Yes
Forced                                   : No
Color range                              : Limited
Color primaries                          : BT.709
Transfer characteristics                 : BT.709
Matrix coefficients                      : BT.709

Audio
ID                                       : 2
Format                                   : AC-3
Format/Info                              : Audio Coding 3
Codec ID                                 : A_AC3
Duration                                 : 1 h 26 min
Bit rate mode                            : Constant
Bit rate                                 : 384 kb/s
Channel(s)                               : 6 channels
Channel positions                        : Front: L C R, Side: L R, LFE
Sampling rate                            : 48.0 kHz
Frame rate                               : 31.250 FPS (1536 SPF)
Bit depth                                : 16 bits
Compression mode                         : Lossy
Stream size                              : 239 MiB (8%)
Title                                    : Time.Toys.2016.1080p.WEB-DL.DD5.1.H.264-FGT
Language                                 : English
Service kind                             : Complete Main
Default                                  : Yes
Forced                                   : No

Text
ID                                       : 3
Format                                   : UTF-8
Codec ID                                 : S_TEXT/UTF8
Codec ID/Info                            : UTF-8 Plain Text
Duration                                 : 1 h 21 min
Bit rate                                 : 68 b/s
Count of elements                        : 1321
Stream size                              : 40.7 KiB (0%)
Language                                 : English
Default                                  : Yes
Forced                                   : No

Menu
00:00:00.000                             : en:Chapter One
00:15:00.000                             : en:Chapter Two
00:30:00.000                             : en:Chapter Three
00:45:00.000                             : en:Chapter Four
01:00:00.000                             : en:Chapter Five
01:15:00.000                             : en:Chapter Six

Screenshots



Download

https://subyshare.com/ejm20n77apj0/Time.Toys.2016.1080p.WEB-DL.DD5.1.H.part1.rar.html
https://subyshare.com/mylp6wssvzue/Time.Toys.2016.1080p.WEB-DL.DD5.1.H.part2.rar.html
https://subyshare.com/dtbb3ep44uzh/Time.Toys.2016.1080p.WEB-DL.DD5.1.H.part3.rar.html