Tilt 2017 1080p WEB-DL DD5.1 H264-FGT

Title: Tilt
Year: 2017
Time: 99 min
Genre: Drama / Horror / Thriller
Directed by: Kasra Farahani
Starring: Joseph Cross / Jessy Hodges / Billy Khoury / Kyle Koromaldi / C.S. Lee
IMDB Rating: 5.1
IMDB URL: http://www.imdb.com/title/tt5435476/
Plot:
An unemployed documentary filmmaker’s behavior becomes increasingly erratic in the months after his wife becomes pregnant.

Video
ID                                       : 1
Format                                   : AVC
Format/Info                              : Advanced Video Codec
Format profile                           : [email protected]
Format settings                          : CABAC / 4 Ref Frames
Format settings, CABAC                   : Yes
Format settings, ReFrames                : 4 frames
Codec ID                                 : V_MPEG4/ISO/AVC
Duration                                 : 1 h 40 min
Bit rate                                 : 4 502 kb/s
Width                                    : 1 920 pixels
Height                                   : 816 pixels
Display aspect ratio                     : 2.35:1
Frame rate mode                          : Constant
Frame rate                               : 23.976 (24000/1001) FPS
Color space                              : YUV
Chroma subsampling                       : 4:2:0
Bit depth                                : 8 bits
Scan type                                : Progressive
Bits/(Pixel*Frame)                       : 0.120
Stream size                              : 3.17 GiB (92%)
Title                                    : Tilt.2017.1080p.1080p.WEB-DL.DD5.1.H.264-FGT
Default                                  : Yes
Forced                                   : No
Color range                              : Limited
Color primaries                          : BT.709
Transfer characteristics                 : BT.709
Matrix coefficients                      : BT.709

Audio
ID                                       : 2
Format                                   : AC-3
Format/Info                              : Audio Coding 3
Codec ID                                 : A_AC3
Duration                                 : 1 h 40 min
Bit rate mode                            : Constant
Bit rate                                 : 384 kb/s
Channel(s)                               : 6 channels
Channel positions                        : Front: L C R, Side: L R, LFE
Sampling rate                            : 48.0 kHz
Frame rate                               : 31.250 FPS (1536 SPF)
Bit depth                                : 16 bits
Compression mode                         : Lossy
Stream size                              : 277 MiB (8%)
Title                                    : Tilt.2017.1080p.1080p.WEB-DL.DD5.1.H.264-FGT
Language                                 : English
Service kind                             : Complete Main
Default                                  : Yes
Forced                                   : No

Text
ID                                       : 3
Format                                   : UTF-8
Codec ID                                 : S_TEXT/UTF8
Codec ID/Info                            : UTF-8 Plain Text
Duration                                 : 1 h 39 min
Bit rate                                 : 52 b/s
Count of elements                        : 1354
Stream size                              : 38.4 KiB (0%)
Language                                 : English
Default                                  : Yes
Forced                                   : No

Menu
00:00:00.000                             : en:Chapter One
00:15:00.192                             : en:Chapter Two
00:30:00.175                             : en:Chapter Three
00:45:00.200                             : en:Chapter Four
01:00:00.142                             : en:Chapter Five
01:15:00.167                             : en:Chapter Six
01:30:00.150                             : en:Chapter Seven

Screenshots

 



Download

https://subyshare.com/fe5ts0kyfhj6/Tilt.2017.1080p.1080p.WEB-DL.DD5.1.H.part1.rar.html
https://subyshare.com/teb013y7e4jt/Tilt.2017.1080p.1080p.WEB-DL.DD5.1.H.part2.rar.html
https://subyshare.com/kez53ryq7rfy/Tilt.2017.1080p.1080p.WEB-DL.DD5.1.H.part3.rar.html