Thousand Yard Stare 2018 1080p WEB-DL DD5.1 H264-FGT

Title: Thousand Yard Stare
Year: 2018
Time: 91 min
Genre: War
Directed by: Aaron Kurmey
Starring: Adam Munro / Kirsten Wendlandt / Gin Fedotov / Michael Dodge / Kelten Jensen
IMDB Rating: 5.2
IMDB URL: http://www.imdb.com/title/tt7969140/
Plot:
During World War II, German forces crush the Americans at the ‘Battle of Kasserine Pass’. A lone Sergeant, Roland Rothach, is separated from his platoon in the North Africa deserts. Captured by German soldiers, he’s forced to face his worst fears. Fears that haunt him long after the war ends. Back home he struggles with flashbacks of the horrors and trauma he experienced, a failing marriage, and the emptiness of isolation.

Video
ID                                       : 1
Format                                   : AVC
Format/Info                              : Advanced Video Codec
Format profile                           : [email protected]
Format settings                          : CABAC / 4 Ref Frames
Format settings, CABAC                   : Yes
Format settings, ReFrames                : 4 frames
Codec ID                                 : V_MPEG4/ISO/AVC
Duration                                 : 1 h 31 min
Bit rate                                 : 5 276 kb/s
Width                                    : 1 916 pixels
Height                                   : 1 076 pixels
Display aspect ratio                     : 16:9
Frame rate mode                          : Constant
Frame rate                               : 23.976 (24000/1001) FPS
Color space                              : YUV
Chroma subsampling                       : 4:2:0
Bit depth                                : 8 bits
Scan type                                : Progressive
Bits/(Pixel*Frame)                       : 0.107
Stream size                              : 3.36 GiB (93%)
Title                                    : Thousand.Yard.Stare.2018.1080p.WEB-DL.DD5.1.H264-FGT
Language                                 : English
Default                                  : Yes
Forced                                   : No
Color range                              : Limited
Color primaries                          : BT.709
Transfer characteristics                 : BT.709
Matrix coefficients                      : BT.709

Audio
ID                                       : 2
Format                                   : AC-3
Format/Info                              : Audio Coding 3
Codec ID                                 : A_AC3
Duration                                 : 1 h 31 min
Bit rate mode                            : Constant
Bit rate                                 : 384 kb/s
Channel(s)                               : 6 channels
Channel positions                        : Front: L C R, Side: L R, LFE
Sampling rate                            : 48.0 kHz
Frame rate                               : 31.250 FPS (1536 SPF)
Bit depth                                : 16 bits
Compression mode                         : Lossy
Delay relative to video                  : -42 ms
Stream size                              : 250 MiB (7%)
Title                                    : Thousand.Yard.Stare.2018.1080p.WEB-DL.DD5.1.H264-FGT
Language                                 : English
Service kind                             : Complete Main
Default                                  : Yes
Forced                                   : No

Menu
00:00:00.000                             : en:Chapter 1
00:24:19.000                             : en:Chapter 2
00:44:43.000                             : en:Chapter 3
01:04:59.000                             : en:Chapter 4
01:27:21.000                             : en:Chapter 5

Screenshots



Download

https://subyshare.com/4ht9ka6batgk/Thousand.Yard.Stare.2018.1080p.WEB-DL.DD5.1.part1.rar.html
https://subyshare.com/qsvx5ttdkq0v/Thousand.Yard.Stare.2018.1080p.WEB-DL.DD5.1.part2.rar.html
https://subyshare.com/ltv8l90uodli/Thousand.Yard.Stare.2018.1080p.WEB-DL.DD5.1.part3.rar.html