The Terrible Two 2018 1080p WEB-DL DD5.1 H264-FGT

Title: The Terrible Two
Year: 2018
Time: 84 min
Genre: Horror / Thriller
Directed by: Billy Lewis
Starring: Donny Boaz / Cari Moskow / Reid Doyle / Devin McGee / Maureen Mountcastle
IMDB Rating: 2.9
IMDB URL: http://www.imdb.com/title/tt5278886/
Plot:
This horror/paranormal thriller follows the lives of Albert and Rose Poe over the course of 4 days that happens to include the one year anniversary of their 5 and 6 year old daughters deaths. The day the girls died was their birthdays too. We soon learn there is more to the girls deaths and the house the Poe’s thought was their safe haven. Written by Billy Lewis

Video
ID                                       : 1
Format                                   : AVC
Format/Info                              : Advanced Video Codec
Format profile                           : [email protected]
Format settings                          : CABAC / 4 Ref Frames
Format settings, CABAC                   : Yes
Format settings, ReFrames                : 4 frames
Codec ID                                 : V_MPEG4/ISO/AVC
Duration                                 : 1 h 23 min
Bit rate                                 : 5 242 kb/s
Width                                    : 1 920 pixels
Height                                   : 1 080 pixels
Display aspect ratio                     : 16:9
Frame rate mode                          : Constant
Frame rate                               : 23.976 (23976/1000) FPS
Color space                              : YUV
Chroma subsampling                       : 4:2:0
Bit depth                                : 8 bits
Scan type                                : Progressive
Bits/(Pixel*Frame)                       : 0.105
Stream size                              : 3.07 GiB (93%)
Title                                    : The.Terrible.Two.2018.1080p.WEB-DL.DD5.1.H264-FGT
Language                                 : English
Default                                  : Yes
Forced                                   : No
Color range                              : Limited
Color primaries                          : BT.709
Transfer characteristics                 : BT.709
Matrix coefficients                      : BT.709

Audio
ID                                       : 2
Format                                   : AC-3
Format/Info                              : Audio Coding 3
Codec ID                                 : A_AC3
Duration                                 : 1 h 23 min
Bit rate mode                            : Constant
Bit rate                                 : 384 kb/s
Channel(s)                               : 6 channels
Channel positions                        : Front: L C R, Side: L R, LFE
Sampling rate                            : 48.0 kHz
Frame rate                               : 31.250 FPS (1536 SPF)
Bit depth                                : 16 bits
Compression mode                         : Lossy
Delay relative to video                  : -42 ms
Stream size                              : 231 MiB (7%)
Title                                    : The.Terrible.Two.2018.1080p.WEB-DL.DD5.1.H264-FGT
Language                                 : English
Service kind                             : Complete Main
Default                                  : Yes
Forced                                   : No

Text
ID                                       : 3
Format                                   : UTF-8
Codec ID                                 : S_TEXT/UTF8
Codec ID/Info                            : UTF-8 Plain Text
Duration                                 : 1 h 18 min
Bit rate                                 : 46 b/s
Count of elements                        : 928
Stream size                              : 26.9 KiB (0%)
Language                                 : English
Default                                  : Yes
Forced                                   : No

Menu
00:00:00.000                             : en:1
00:12:16.000                             : en:2
00:21:54.000                             : en:3
00:32:52.000                             : en:4
00:47:33.000                             : en:5
00:57:25.000                             : en:6
01:07:18.000                             : en:7
01:19:37.000                             : en:8


Screenshots



Download

https://subyshare.com/9vuheghe7hgz/The.Terrible.Two.2018.1080p.WEB-DL.DD5.1.part1.rar.html
https://subyshare.com/7ax508x3rsi1/The.Terrible.Two.2018.1080p.WEB-DL.DD5.1.part2.rar.html
https://subyshare.com/roxs7qdg8n7l/The.Terrible.Two.2018.1080p.WEB-DL.DD5.1.part3.rar.html