The Strangers Prey at Night 2018 1080p WEB-DL DD5.1 H264-FGT

Title: The Strangers: Prey at Night
Year: 2018
Time: 85 min
Genre: Horror
Directed by: Johannes Roberts
Starring: Christina Hendricks / Bailee Madison / Martin Henderson / Lewis Pullman / Emma Bellomy
IMDB Rating: 5.6
IMDB URL: http://www.imdb.com/title/tt1285009/
Plot:
A family’s road trip takes a dangerous turn when they arrive at a secluded mobile home park to stay with some relatives and find it mysteriously deserted. Under the cover of darkness, three masked psychopaths pay them a visit to test the family’s every limit as they struggle to survive. Written by Aviron Pictures

Video
ID                                       : 1
Format                                   : AVC
Format/Info                              : Advanced Video Codec
Format profile                           : [email protected]
Format settings                          : CABAC / 5 Ref Frames
Format settings, CABAC                   : Yes
Format settings, ReFrames                : 5 frames
Codec ID                                 : V_MPEG4/ISO/AVC
Duration                                 : 1 h 25 min
Bit rate                                 : 4 596 kb/s
Width                                    : 1 916 pixels
Height                                   : 800 pixels
Display aspect ratio                     : 2.40:1
Frame rate mode                          : Constant
Frame rate                               : 23.976 (23976/1000) FPS
Color space                              : YUV
Chroma subsampling                       : 4:2:0
Bit depth                                : 8 bits
Scan type                                : Progressive
Bits/(Pixel*Frame)                       : 0.125
Stream size                              : 2.75 GiB (92%)
Title                                    : The.Strangers.Prey.at.Night.2018.1080p.WEB-DL.DD5.1.H264-FGT
Language                                 : English
Default                                  : Yes
Forced                                   : No
Color range                              : Limited
Color primaries                          : BT.709
Transfer characteristics                 : BT.709
Matrix coefficients                      : BT.709

Audio
ID                                       : 2
Format                                   : AC-3
Format/Info                              : Audio Coding 3
Codec ID                                 : A_AC3
Duration                                 : 1 h 25 min
Bit rate mode                            : Constant
Bit rate                                 : 384 kb/s
Channel(s)                               : 6 channels
Channel positions                        : Front: L C R, Side: L R, LFE
Sampling rate                            : 48.0 kHz
Frame rate                               : 31.250 FPS (1536 SPF)
Bit depth                                : 16 bits
Compression mode                         : Lossy
Delay relative to video                  : -42 ms
Stream size                              : 235 MiB (8%)
Title                                    : The.Strangers.Prey.at.Night.2018.1080p.WEB-DL.DD5.1.H264-FGT
Language                                 : English
Service kind                             : Complete Main
Default                                  : Yes
Forced                                   : No

Menu
00:00:00.000                             : en:1
00:05:00.884                             : en:2
00:08:50.154                             : en:3
00:12:59.111                             : en:4
00:17:24.918                             : en:5
00:21:54.771                             : en:6
00:24:54.909                             : en:7
00:30:16.105                             : en:8
00:34:46.208                             : en:9
00:40:02.899                             : en:10
00:44:49.727                             : en:11
00:49:49.443                             : en:12
00:53:13.605                             : en:13
00:56:56.995                             : en:14
00:58:21.704                             : en:15
01:00:38.882                             : en:16
01:05:22.707                             : en:17
01:09:18.526                             : en:18
01:15:00.034                             : en:19
01:18:08.347                             : en:20

Screenshots



Download

https://subyshare.com/zbzq29tizck2/The.Strangers.Prey.at.Night.2018.1080p.WEB-DL.DD5.1.part1.rar.html
https://subyshare.com/jgr01aencp16/The.Strangers.Prey.at.Night.2018.1080p.WEB-DL.DD5.1.part2.rar.html
https://subyshare.com/jtey30kekeas/The.Strangers.Prey.at.Night.2018.1080p.WEB-DL.DD5.1.part3.rar.html