The Rake 2018 720p AMZN WEBRip DDP5.1 x264-NTG

Title: The Rake
Year: 2018
Time: 79 min
Genre: Horror / Thriller
Directed by: Tony Wash
Starring: Frederick Ford Beckley / Joey Bicicchi / Stephen Brodie / Joe Cipriano / Shenae Grimes-Beech
IMDB Rating: 3.6
IMDB URL: http://www.imdb.com/title/tt5226192/
Plot:
Siblings Ben and Ashley come together 20 years after the murder of their parents to determine the cause of their parents’ death. A link between the deaths and the local myth of The Rake is found. Ashley is troubled by the idea that the thing that took her parents’ lives may not be finished with her family.

Video
ID                                       : 1
Format                                   : AVC
Format/Info                              : Advanced Video Codec
Format profile                           : [email protected]
Format settings                          : CABAC / 5 Ref Frames
Format settings, CABAC                   : Yes
Format settings, ReFrames                : 5 frames
Codec ID                                 : V_MPEG4/ISO/AVC
Duration                                 : 1 h 18 min
Bit rate mode                            : Variable
Bit rate                                 : 2 316 kb/s
Maximum bit rate                         : 4 500 kb/s
Width                                    : 1 280 pixels
Height                                   : 528 pixels
Display aspect ratio                     : 2.40:1
Original display aspect ratio            : 2.40:1
Frame rate mode                          : Constant
Frame rate                               : 23.976 (24000/1001) FPS
Color space                              : YUV
Chroma subsampling                       : 4:2:0
Bit depth                                : 8 bits
Scan type                                : Progressive
Bits/(Pixel*Frame)                       : 0.143
Stream size                              : 1.27 GiB (78%)
Default                                  : Yes
Forced                                   : No
Color range                              : Limited
Color primaries                          : BT.709
Transfer characteristics                 : BT.709
Matrix coefficients                      : BT.709

Audio
ID                                       : 2
Format                                   : E-AC-3
Format/Info                              : Enhanced Audio Coding 3
Codec ID                                 : A_EAC3
Duration                                 : 1 h 18 min
Bit rate mode                            : Constant
Bit rate                                 : 640 kb/s
Channel(s)                               : 6 channels
Channel positions                        : Front: L C R, Side: L R, LFE
Sampling rate                            : 48.0 kHz
Frame rate                               : 187.500 FPS (256 SPF)
Compression mode                         : Lossy
Stream size                              : 360 MiB (22%)
Language                                 : English
Service kind                             : Complete Main
Default                                  : Yes
Forced                                   : No

Text
ID                                       : 3
Format                                   : UTF-8
Codec ID                                 : S_TEXT/UTF8
Codec ID/Info                            : UTF-8 Plain Text
Duration                                 : 1 h 15 min
Bit rate                                 : 48 b/s
Count of elements                        : 883
Stream size                              : 27.1 KiB (0%)
Title                                    : SDH
Language                                 : English
Default                                  : No
Forced                                   : No

Screenshots

 



Download

https://subyshare.com/tjbf7s0fntd5/The.Rake.2018.720p.AMZN.WEBRip.DDP5.1.part1.rar.html
https://subyshare.com/14l5k6j61kex/The.Rake.2018.720p.AMZN.WEBRip.DDP5.1.part2.rar.html