The Price 2017 1080p WEB-DL DD5.1 H264-FGT

Title: The Price
Year: 2017
Time: 91 min
Genre: Drama
Directed by: Anthony Onah
Starring: Aml Ameen / Lucy Griffiths / Bill Sage / Michael Hyatt / Dana Drori
IMDB Rating: 4.9
IMDB URL: http://www.imdb.com/title/tt3212026/
Plot:
A young Nigerian-American financier struggles with love, family, and a prescription drug dependency as his ambitions steer him down a criminal path.

Video
ID                                       : 1
Format                                   : AVC
Format/Info                              : Advanced Video Codec
Format profile                           : [email protected]
Format settings                          : CABAC / 5 Ref Frames
Format settings, CABAC                   : Yes
Format settings, ReFrames                : 5 frames
Codec ID                                 : V_MPEG4/ISO/AVC
Duration                                 : 1 h 32 min
Bit rate                                 : 4 563 kb/s
Width                                    : 1 904 pixels
Height                                   : 804 pixels
Display aspect ratio                     : 2.35:1
Frame rate mode                          : Constant
Frame rate                               : 23.976 (24000/1001) FPS
Color space                              : YUV
Chroma subsampling                       : 4:2:0
Bit depth                                : 8 bits
Scan type                                : Progressive
Bits/(Pixel*Frame)                       : 0.124
Stream size                              : 2.95 GiB (92%)
Title                                    : The.Price.2017.1080p.WEB-DL.DD5.1.H264-FGT
Language                                 : English
Default                                  : Yes
Forced                                   : No
Color range                              : Limited
Color primaries                          : BT.709
Transfer characteristics                 : BT.709
Matrix coefficients                      : BT.709

Audio
ID                                       : 2
Format                                   : AC-3
Format/Info                              : Audio Coding 3
Codec ID                                 : A_AC3
Duration                                 : 1 h 32 min
Bit rate mode                            : Constant
Bit rate                                 : 384 kb/s
Channel(s)                               : 6 channels
Channel positions                        : Front: L C R, Side: L R, LFE
Sampling rate                            : 48.0 kHz
Frame rate                               : 31.250 FPS (1536 SPF)
Bit depth                                : 16 bits
Compression mode                         : Lossy
Stream size                              : 255 MiB (8%)
Title                                    : The.Price.2017.1080p.WEB-DL.DD5.1.H264-FGT
Language                                 : English
Service kind                             : Complete Main
Default                                  : Yes
Forced                                   : No

Text
ID                                       : 3
Format                                   : UTF-8
Codec ID                                 : S_TEXT/UTF8
Codec ID/Info                            : UTF-8 Plain Text
Duration                                 : 1 h 29 min
Bit rate                                 : 48 b/s
Count of elements                        : 1102
Stream size                              : 32.0 KiB (0%)
Language                                 : English
Default                                  : Yes
Forced                                   : No

Menu
00:00:00.000                             : en:Chapter 1
00:10:08.608                             : en:Chapter 2
00:19:45.184                             : en:Chapter 3
00:29:38.777                             : en:Chapter 4
00:40:02.400                             : en:Chapter 5
00:50:24.021                             : en:Chapter 6
01:00:29.626                             : en:Chapter 7
01:10:37.233                             : en:Chapter 8
01:19:35.771                             : en:Chapter 9
01:29:51.386                             : en:Chapter 10



Screenshots



Download

https://subyshare.com/hrpjs3y3ctd2/The.Price.2017.1080p.WEB-DL.DD5.1.part1.rar.html
https://subyshare.com/5h0i3avppvex/The.Price.2017.1080p.WEB-DL.DD5.1.part2.rar.html
https://subyshare.com/occ1s55qztwe/The.Price.2017.1080p.WEB-DL.DD5.1.part3.rar.html