The Music of Silence 2017 1080p WEB-DL DD5.1 H264-FGT

Title: La musica del silenzio
Year: 2017
Time: 115 min
Genre: Biography / Biography
Directed by: Michael Radford
Starring: Antonio Banderas / Jordi Molla / Toby Sebastian / Alessandro Sperduti / Luisa Ranieri
IMDB Rating: 5.4
IMDB URL: http://www.imdb.com/title/tt3244786/
Plot:
Born with a serious eye condition that eventually leads to his blindness, Bocelli nevertheless rises above the challenges, driven by great ambitions towards his passion. The silent pursuit of his daily mission continues.


Video
ID                                       : 1
Format                                   : AVC
Format/Info                              : Advanced Video Codec
Format profile                           : [email protected]
Format settings                          : CABAC / 5 Ref Frames
Format settings, CABAC                   : Yes
Format settings, ReFrames                : 5 frames
Codec ID                                 : V_MPEG4/ISO/AVC
Duration                                 : 1 h 55 min
Bit rate                                 : 4 566 kb/s
Width                                    : 1 904 pixels
Height                                   : 800 pixels
Display aspect ratio                     : 2.40:1
Frame rate mode                          : Constant
Frame rate                               : 23.976 (24000/1001) FPS
Color space                              : YUV
Chroma subsampling                       : 4:2:0
Bit depth                                : 8 bits
Scan type                                : Progressive
Bits/(Pixel*Frame)                       : 0.125
Stream size                              : 3.68 GiB (92%)
Title                                    : The.Music.of.Silence.2017.1080p.WEB-DL.DD5.1.H.264-FGT
Language                                 : English
Default                                  : Yes
Forced                                   : No
Color range                              : Limited
Color primaries                          : BT.709
Transfer characteristics                 : BT.709
Matrix coefficients                      : BT.709

Audio
ID                                       : 2
Format                                   : AC-3
Format/Info                              : Audio Coding 3
Codec ID                                 : A_AC3
Duration                                 : 1 h 55 min
Bit rate mode                            : Constant
Bit rate                                 : 384 kb/s
Channel(s)                               : 6 channels
Channel positions                        : Front: L C R, Side: L R, LFE
Sampling rate                            : 48.0 kHz
Frame rate                               : 31.250 FPS (1536 SPF)
Bit depth                                : 16 bits
Compression mode                         : Lossy
Stream size                              : 317 MiB (8%)
Title                                    : The.Music.of.Silence.2017.1080p.WEB-DL.DD5.1.H.264-FGT
Language                                 : English
Service kind                             : Complete Main
Default                                  : Yes
Forced                                   : No

Text
ID                                       : 3
Format                                   : UTF-8
Codec ID                                 : S_TEXT/UTF8
Codec ID/Info                            : UTF-8 Plain Text
Duration                                 : 1 h 54 min
Bit rate                                 : 43 b/s
Count of elements                        : 1123
Stream size                              : 36.2 KiB (0%)
Language                                 : English
Default                                  : Yes
Forced                                   : No

Menu
00:00:00.000                             : en:Chapter 1
00:10:33.633                             : en:Chapter 2
00:20:05.204                             : en:Chapter 3
00:31:40.899                             : en:Chapter 4
00:39:57.395                             : en:Chapter 5
00:51:14.071                             : en:Chapter 6
01:00:53.650                             : en:Chapter 7
01:10:42.238                             : en:Chapter 8
01:18:27.703                             : en:Chapter 9
01:30:16.411                             : en:Chapter 10
01:40:28.022                             : en:Chapter 11
01:48:23.497                             : en:Chapter 12

Screenshots



Download

https://subyshare.com/27aaq0qkoi87/The.Music.of.Silence.2017.1080p.WEB-DL.DD5.1.H.part1.rar.html
https://subyshare.com/qlbfph77q0sv/The.Music.of.Silence.2017.1080p.WEB-DL.DD5.1.H.part2.rar.html
https://subyshare.com/eo7208heuija/The.Music.of.Silence.2017.1080p.WEB-DL.DD5.1.H.part3.rar.html