The Laundryman 2016 1080p AMZN WEBRip DD2.0 x264-AJP69

Title: Laundry Man
Year: 2016
Time: 111 min
Genre: Horror / Horror
Directed by: Johan Vandewoestijne
Starring: Ignace Paepe / Thierry Wybauw / Sharon Slosse / Ziva Marshall / Kristel Breugelmans
IMDB Rating: 4.2
IMDB URL: http://www.imdb.com/title/tt4412268/
Plot:
Laundry Man is the story about a rather clumsy serial killer. It is partly based on the crimes committed by American serial killer Jeffrey Dahmer and those committed by the Belgian-Hungarian pastor Andras Pandy.

Video
ID                                       : 1
Format                                   : AVC
Format/Info                              : Advanced Video Codec
Format profile                           : [email protected]
Format settings                          : CABAC / 4 Ref Frames
Format settings, CABAC                   : Yes
Format settings, ReFrames                : 4 frames
Codec ID                                 : V_MPEG4/ISO/AVC
Duration                                 : 1 h 51 min
Bit rate mode                            : Variable
Bit rate                                 : 7 013 kb/s
Maximum bit rate                         : 15.0 Mb/s
Width                                    : 1 920 pixels
Height                                   : 1 080 pixels
Display aspect ratio                     : 16:9
Frame rate mode                          : Constant
Frame rate                               : 23.976 (24000/1001) FPS
Color space                              : YUV
Chroma subsampling                       : 4:2:0
Bit depth                                : 8 bits
Scan type                                : Progressive
Bits/(Pixel*Frame)                       : 0.141
Stream size                              : 5.49 GiB (97%)
Default                                  : Yes
Forced                                   : No
Color range                              : Limited
Color primaries                          : BT.709
Transfer characteristics                 : BT.709
Matrix coefficients                      : BT.709

Audio
ID                                       : 2
Format                                   : E-AC-3
Format/Info                              : Enhanced Audio Coding 3
Codec ID                                 : A_EAC3
Duration                                 : 1 h 51 min
Bit rate mode                            : Constant
Bit rate                                 : 224 kb/s
Channel(s)                               : 2 channels
Channel positions                        : Front: L R
Sampling rate                            : 48.0 kHz
Frame rate                               : 187.500 FPS (256 SPF)
Compression mode                         : Lossy
Stream size                              : 179 MiB (3%)
Language                                 : Korean
Service kind                             : Complete Main
Default                                  : Yes
Forced                                   : No

Text #1
ID                                       : 3
Format                                   : UTF-8
Codec ID                                 : S_TEXT/UTF8
Codec ID/Info                            : UTF-8 Plain Text
Duration                                 : 1 min 58 s
Bit rate                                 : 5 b/s
Count of elements                        : 2
Stream size                              : 76.0 Bytes (0%)
Language                                 : English
Default                                  : No
Forced                                   : No

Text #2
ID                                       : 4
Format                                   : UTF-8
Codec ID                                 : S_TEXT/UTF8
Codec ID/Info                            : UTF-8 Plain Text
Duration                                 : 1 h 48 min
Bit rate                                 : 4 b/s
Count of elements                        : 209
Stream size                              : 3.23 KiB (0%)
Title                                    : SDH
Language                                 : English
Default                                  : No
Forced                                   : No

Screenshot







Download

https://subyshare.com/c5trngh9xwj7/The.Laundryman.2016.1080p.AMZN.WEBRip.DD2.0.part1.rar.html
https://subyshare.com/x9td0nvp0a72/The.Laundryman.2016.1080p.AMZN.WEBRip.DD2.0.part2.rar.html
https://subyshare.com/uqzjzxf8q9oe/The.Laundryman.2016.1080p.AMZN.WEBRip.DD2.0.part3.rar.html
https://subyshare.com/tc3kaponzq7a/The.Laundryman.2016.1080p.AMZN.WEBRip.DD2.0.part4.rar.html

Leave a Reply

Your email address will not be published. Required fields are marked *