The Jade Pendant 2017 1080p WEB-DL DD5.1 H264-FGT

Title: The Jade Pendant
Year: 2017
Time: 106 min
Genre: Drama / History / Western
Directed by: Po-Chih Leong
Starring: Godfrey Gao / Clara Lee / Tzi Ma / Mark Boone Junior / Russell Wong
IMDB Rating: 6.2
IMDB URL: http://www.imdb.com/title/tt5156532/
Plot:
A tragic love story set against the lynching of 18 Chinese immigrants in Los Angeles, in 1871. Filmed in Utah.

Video
ID                                       : 1
Format                                   : AVC
Format/Info                              : Advanced Video Codec
Format profile                           : [email protected]
Format settings                          : CABAC / 5 Ref Frames
Format settings, CABAC                   : Yes
Format settings, ReFrames                : 5 frames
Codec ID                                 : V_MPEG4/ISO/AVC
Duration                                 : 1 h 46 min
Bit rate                                 : 4 584 kb/s
Width                                    : 1 916 pixels
Height                                   : 796 pixels
Display aspect ratio                     : 2.40:1
Frame rate mode                          : Constant
Frame rate                               : 23.976 (23976/1000) FPS
Color space                              : YUV
Chroma subsampling                       : 4:2:0
Bit depth                                : 8 bits
Scan type                                : Progressive
Bits/(Pixel*Frame)                       : 0.125
Stream size                              : 3.42 GiB (92%)
Title                                    : The.Jade.Pendant.2017.1080p.WEB-DL.DD5.1.H.264-FGT
Language                                 : English
Default                                  : Yes
Forced                                   : No
Color range                              : Limited
Color primaries                          : BT.709
Transfer characteristics                 : BT.709
Matrix coefficients                      : BT.709

Audio
ID                                       : 2
Format                                   : AC-3
Format/Info                              : Audio Coding 3
Codec ID                                 : A_AC3
Duration                                 : 1 h 46 min
Bit rate mode                            : Constant
Bit rate                                 : 384 kb/s
Channel(s)                               : 6 channels
Channel positions                        : Front: L C R, Side: L R, LFE
Sampling rate                            : 48.0 kHz
Frame rate                               : 31.250 FPS (1536 SPF)
Bit depth                                : 16 bits
Compression mode                         : Lossy
Delay relative to video                  : -42 ms
Stream size                              : 293 MiB (8%)
Title                                    : The.Jade.Pendant.2017.1080p.WEB-DL.DD5.1.H.264-FGT
Language                                 : English
Service kind                             : Complete Main
Default                                  : Yes
Forced                                   : No

Text
ID                                       : 3
Format                                   : UTF-8
Codec ID                                 : S_TEXT/UTF8
Codec ID/Info                            : UTF-8 Plain Text
Duration                                 : 1 h 42 min
Bit rate                                 : 19 b/s
Count of elements                        : 683
Stream size                              : 15.0 KiB (0%)
Language                                 : English
Default                                  : Yes
Forced                                   : No

Menu
00:00:00.000                             : en:Chapter 1
00:14:11.142                             : en:Chapter 2
00:24:38.018                             : en:Chapter 3
00:42:06.775                             : en:Chapter 4
00:57:16.684                             : en:Chapter 5
01:07:44.478                             : en:Chapter 6
01:22:23.440                             : en:Chapter 7
01:39:56.826                             : en:Chapter 8

Screenshots



Download

https://subyshare.com/ev05hfzipszi/The.Jade.Pendant.2017.1080p.WEB-DL.DD5.1.H.part1.rar.html
https://subyshare.com/9ntzu0acshah/The.Jade.Pendant.2017.1080p.WEB-DL.DD5.1.H.part2.rar.html
https://subyshare.com/bc9r6z6cy4a0/The.Jade.Pendant.2017.1080p.WEB-DL.DD5.1.H.part3.rar.html