The Greatest Showman 2017 1080p AMZN WEBRip DDP5.1 x264-NTG

Title: The Greatest Showman
Year: 2017
Time: 105 min
Genre: Biography / Drama / Musical / Romance
Directed by: Michael Gracey
Starring: Hugh Jackman / Michelle Williams / Zac Efron / Zendaya / Rebecca Ferguson
IMDB Rating: 7.9
IMDB URL: http://www.imdb.com/title/tt1485796/
Plot:
Orphaned, penniless but ambitious and with a mind crammed with imagination and fresh ideas, the American Phineas Taylor Barnum will always be remembered as the man with the gift to effortlessly blur the line between reality and fiction. Thirsty for innovation and hungry for success, the son of a tailor will manage to open a wax museum but will soon shift focus to the unique and peculiar, introducing extraordinary, never-seen-before live acts on the circus stage. Some will call Barnum’s wide collection of oddities, a freak show; however, when the obsessed for cheers and respectability showman gambles everything on the opera singer Jenny Lind to appeal to a high-brow audience, he will somehow lose sight of the most important aspect of his life: his family. Will Barnum risk it all to be accepted? Written by Nick Riganas

Video
ID                                       : 1
Format                                   : AVC
Format/Info                              : Advanced Video Codec
Format profile                           : [email protected]
Format settings                          : CABAC / 4 Ref Frames
Format settings, CABAC                   : Yes
Format settings, ReFrames                : 4 frames
Codec ID                                 : V_MPEG4/ISO/AVC
Duration                                 : 1 h 44 min
Bit rate mode                            : Variable
Bit rate                                 : 5 277 kb/s
Maximum bit rate                         : 15.0 Mb/s
Width                                    : 1 920 pixels
Height                                   : 816 pixels
Display aspect ratio                     : 2.35:1
Frame rate mode                          : Constant
Frame rate                               : 23.976 (24000/1001) FPS
Color space                              : YUV
Chroma subsampling                       : 4:2:0
Bit depth                                : 8 bits
Scan type                                : Progressive
Bits/(Pixel*Frame)                       : 0.140
Stream size                              : 3.86 GiB (89%)
Default                                  : Yes
Forced                                   : No
Color range                              : Limited
Color primaries                          : BT.709
Transfer characteristics                 : BT.709
Matrix coefficients                      : BT.709

Audio
ID                                       : 2
Format                                   : E-AC-3
Format/Info                              : Enhanced Audio Coding 3
Codec ID                                 : A_EAC3
Duration                                 : 1 h 44 min
Bit rate mode                            : Constant
Bit rate                                 : 640 kb/s
Channel(s)                               : 6 channels
Channel positions                        : Front: L C R, Side: L R, LFE
Sampling rate                            : 48.0 kHz
Frame rate                               : 187.500 FPS (256 SPF)
Compression mode                         : Lossy
Stream size                              : 480 MiB (11%)
Language                                 : English
Service kind                             : Complete Main
Default                                  : Yes
Forced                                   : No

Text #1
ID                                       : 3
Format                                   : UTF-8
Codec ID                                 : S_TEXT/UTF8
Codec ID/Info                            : UTF-8 Plain Text
Duration                                 : 1 h 44 min
Bit rate                                 : 67 b/s
Count of elements                        : 1774
Stream size                              : 51.7 KiB (0%)
Language                                 : English
Default                                  : No
Forced                                   : No

Text #2
ID                                       : 4
Format                                   : UTF-8
Codec ID                                 : S_TEXT/UTF8
Codec ID/Info                            : UTF-8 Plain Text
Duration                                 : 1 h 44 min
Bit rate                                 : 70 b/s
Count of elements                        : 1872
Stream size                              : 54.2 KiB (0%)
Title                                    : SDH
Language                                 : English
Default                                  : No
Forced                                   : No

Screenshots



Download

https://subyshare.com/vqibdh8mf91k/The.Greatest.Showman.2017.1080p.AMZN.WEBRip.DDP5.1.part1.rar.html
https://subyshare.com/xkjh0mov155g/The.Greatest.Showman.2017.1080p.AMZN.WEBRip.DDP5.1.part2.rar.html
https://subyshare.com/f87afh7nav0e/The.Greatest.Showman.2017.1080p.AMZN.WEBRip.DDP5.1.part3.rar.html
https://subyshare.com/cmrku3i2c9kj/The.Greatest.Showman.2017.1080p.AMZN.WEBRip.DDP5.1.part4.rar.html