The Forgiven 2017 720p WEB-DL DD5.1 H264-FGT

Title: The Forgiven
Year: 2017
Time: 115 min
Genre: Thriller / Thriller
Directed by: Roland Joffe
Starring: Forest Whitaker / Eric Bana / Jeff Gum / Morne Visser / Thandi Makhubele
IMDB Rating: 5.4
IMDB URL: http://www.imdb.com/title/tt2249081/
Plot:
After the end of Apartheid, Archbishop Desmond Tutu meets with a brutal murderer seeking redemption.

Video
ID                                       : 1
Format                                   : AVC
Format/Info                              : Advanced Video Codec
Format profile                           : [email protected]
Format settings                          : 2 Ref Frames
Format settings, CABAC                   : No
Format settings, ReFrames                : 2 frames
Codec ID                                 : V_MPEG4/ISO/AVC
Duration                                 : 2 h 0 min
Bit rate                                 : 4 093 kb/s
Width                                    : 1 280 pixels
Height                                   : 718 pixels
Display aspect ratio                     : 16:9
Frame rate mode                          : Constant
Frame rate                               : 23.976 (24000/1001) FPS
Color space                              : YUV
Chroma subsampling                       : 4:2:0
Bit depth                                : 8 bits
Scan type                                : Progressive
Bits/(Pixel*Frame)                       : 0.186
Stream size                              : 3.44 GiB (91%)
Title                                    : The.Forgiven.2018.720p.WEB-DL.DD5.1.H264-FGT
Language                                 : English
Default                                  : Yes
Forced                                   : No
Color range                              : Limited
Color primaries                          : BT.709
Transfer characteristics                 : BT.709
Matrix coefficients                      : BT.709

Audio
ID                                       : 2
Format                                   : AC-3
Format/Info                              : Audio Coding 3
Codec ID                                 : A_AC3
Duration                                 : 2 h 0 min
Bit rate mode                            : Constant
Bit rate                                 : 384 kb/s
Channel(s)                               : 6 channels
Channel positions                        : Front: L C R, Side: L R, LFE
Sampling rate                            : 48.0 kHz
Frame rate                               : 31.250 FPS (1536 SPF)
Bit depth                                : 16 bits
Compression mode                         : Lossy
Stream size                              : 330 MiB (9%)
Title                                    : The.Forgiven.2018.720p.WEB-DL.DD5.1.H264-FGT
Language                                 : English
Service kind                             : Complete Main
Default                                  : Yes
Forced                                   : No

Menu
00:00:00.000                             : en:1
00:12:41.000                             : en:2
00:23:08.000                             : en:3
00:32:53.000                             : en:4
00:42:40.000                             : en:5
00:51:32.000                             : en:6
01:03:42.000                             : en:7
01:14:47.000                             : en:8
01:23:06.000                             : en:9
01:34:44.000                             : en:10
01:42:51.000                             : en:11
01:55:30.000                             : en:12

Screenshots



Download

https://subyshare.com/2burnqaf04yn/The.Forgiven.2018.720p.WEB-DL.DD5.1.part1.rar.html
https://subyshare.com/j7jtdxugd59x/The.Forgiven.2018.720p.WEB-DL.DD5.1.part2.rar.html
https://subyshare.com/0kepizzavyxx/The.Forgiven.2018.720p.WEB-DL.DD5.1.part3.rar.html