The Forgiven 2017 1080p BluRay x264 DTS-MT

Title: The Forgiven
Year: 2017
Time: 115 min
Genre: Thriller
Directed by: Roland Joffé
Starring: Forest Whitaker / Eric Bana / Jeff Gum / Morné Visser / Thandi Makhubele
IMDB Rating: 5.5
IMDB URL: http://www.imdb.com/title/tt2249081/
Plot:
After the end of Apartheid, Archbishop Desmond Tutu meets with a brutal murderer seeking redemption.

Video
ID                                       : 1
Format                                   : AVC
Format/Info                              : Advanced Video Codec
Format profile                           : [email protected]
Format settings                          : CABAC / 4 Ref Frames
Format settings, CABAC                   : Yes
Format settings, ReFrames                : 4 frames
Codec ID                                 : V_MPEG4/ISO/AVC
Duration                                 : 2 h 0 min
Bit rate                                 : 9 500 kb/s
Width                                    : 1 920 pixels
Height                                   : 1 038 pixels
Display aspect ratio                     : 1.85:1
Frame rate mode                          : Constant
Frame rate                               : 23.976 (24000/1001) FPS
Color space                              : YUV
Chroma subsampling                       : 4:2:0
Bit depth                                : 8 bits
Scan type                                : Progressive
Bits/(Pixel*Frame)                       : 0.199
Stream size                              : 7.97 GiB (86%)
Title                                    : The.Forgiven.2017.1080p.BluRay.x264.DTS-MT
Writing library                          : x264 core 155 r2901 7d0ff22
Encoding settings                        : cabac=1 / ref=4 / deblock=1:-3:-3 / analyse=0x3:0x113 / me=umh / subme=10 / psy=1 / psy_rd=1.05:0.10 / mixed_ref=1 / me_range=48 / chroma_me=1 / trellis=2 / 8x8dct=1 / cqm=0 / deadzone=21,11 / fast_pskip=0 / chroma_qp_offset=-2 / threads=12 / lookahead_threads=1 / sliced_threads=0 / nr=0 / decimate=1 / interlaced=0 / bluray_compat=0 / constrained_intra=0 / bframes=6 / b_pyramid=2 / b_adapt=2 / b_bias=0 / direct=3 / weightb=1 / open_gop=0 / weightp=2 / keyint=250 / keyint_min=23 / scenecut=40 / intra_refresh=0 / rc=2pass / mbtree=0 / bitrate=9500 / ratetol=2.0 / qcomp=0.70 / qpmin=0 / qpmax=69 / qpstep=4 / cplxblur=20.0 / qblur=0.5 / ip_ratio=1.40 / pb_ratio=1.30 / aq=3:1.00
Default                                  : Yes
Forced                                   : No

Audio
ID                                       : 2
Format                                   : DTS
Format/Info                              : Digital Theater Systems
Codec ID                                 : A_DTS
Duration                                 : 2 h 0 min
Bit rate mode                            : Constant
Bit rate                                 : 1 509 kb/s
Channel(s)                               : 6 channels
Channel positions                        : Front: L C R, Side: L R, LFE
Sampling rate                            : 48.0 kHz
Frame rate                               : 93.750 FPS (512 SPF)
Bit depth                                : 24 bits
Compression mode                         : Lossy
Stream size                              : 1.27 GiB (14%)
Title                                    : The.Forgiven.2017.1080p.BluRay.x264.DTS-MT
Language                                 : English
Default                                  : Yes
Forced                                   : No

Text
ID                                       : 3
Format                                   : UTF-8
Codec ID                                 : S_TEXT/UTF8
Codec ID/Info                            : UTF-8 Plain Text
Duration                                 : 1 h 58 min
Bit rate                                 : 43 b/s
Count of elements                        : 1608
Stream size                              : 38.1 KiB (0%)
Language                                 : English
Default                                  : Yes
Forced                                   : No

Screenshots



Download

https://subyshare.com/fhmf3byzlsly/The.Forgiven.2017.1080p.BluRay.x264.part1.rar.html
https://subyshare.com/1iqeuf9s9bpa/The.Forgiven.2017.1080p.BluRay.x264.part2.rar.html
https://subyshare.com/qk82jeey63y2/The.Forgiven.2017.1080p.BluRay.x264.part3.rar.html
https://subyshare.com/idntzh95b5h6/The.Forgiven.2017.1080p.BluRay.x264.part4.rar.html
https://subyshare.com/4neausbnl6bq/The.Forgiven.2017.1080p.BluRay.x264.part5.rar.html
https://subyshare.com/moyadg9hxcy4/The.Forgiven.2017.1080p.BluRay.x264.part6.rar.html
https://subyshare.com/ovl5qty8d11r/The.Forgiven.2017.1080p.BluRay.x264.part7.rar.html