The Feels 2017 1080p BluRay x264 DTS-MT

Title: The Feels
Year: 2017
Time: 90 min
Genre: Comedy / Romance
Directed by: Jenee LaMarque
Starring: Constance Wu / Josh Fadem / Jenee LaMarque / Ever Mainard / Lauren Parks
IMDB Rating: 5.3
IMDB URL: http://www.imdb.com/title/tt5831402/
Plot:
A lesbian bachelorette weekend goes awry when one of the brides admits she’s never had an orgasm.

Video
ID                                       : 1
Format                                   : AVC
Format/Info                              : Advanced Video Codec
Format profile                           : [email protected]
Format settings                          : CABAC / 4 Ref Frames
Format settings, CABAC                   : Yes
Format settings, ReFrames                : 4 frames
Codec ID                                 : V_MPEG4/ISO/AVC
Duration                                 : 1 h 27 min
Bit rate                                 : 14.4 Mb/s
Width                                    : 1 920 pixels
Height                                   : 1 040 pixels
Display aspect ratio                     : 1.85:1
Frame rate mode                          : Constant
Frame rate                               : 23.976 (24000/1001) FPS
Color space                              : YUV
Chroma subsampling                       : 4:2:0
Bit depth                                : 8 bits
Scan type                                : Progressive
Bits/(Pixel*Frame)                       : 0.300
Stream size                              : 8.82 GiB (90%)
Title                                    : The.Feels.2017.1080p.BluRay.x264.DTS-MT
Language                                 : English
Default                                  : Yes
Forced                                   : No

Audio
ID                                       : 2
Format                                   : DTS
Format/Info                              : Digital Theater Systems
Codec ID                                 : A_DTS
Duration                                 : 1 h 27 min
Bit rate mode                            : Constant
Bit rate                                 : 1 509 kb/s
Channel(s)                               : 6 channels
Channel positions                        : Front: L C R, Side: L R, LFE
Sampling rate                            : 48.0 kHz
Frame rate                               : 93.750 FPS (512 SPF)
Bit depth                                : 24 bits
Compression mode                         : Lossy
Stream size                              : 949 MiB (10%)
Title                                    : The.Feels.2017.1080p.BluRay.x264.DTS-MT
Language                                 : English
Default                                  : Yes
Forced                                   : No

Screenshots



Download

https://subyshare.com/qarpmwj1c629/The.Feels.2017.1080p.BluRay.x264.part1.rar.html
https://subyshare.com/9muc0run8xt1/The.Feels.2017.1080p.BluRay.x264.part2.rar.html
https://subyshare.com/3nay13p1ejci/The.Feels.2017.1080p.BluRay.x264.part3.rar.html
https://subyshare.com/vt7map7a30zf/The.Feels.2017.1080p.BluRay.x264.part4.rar.html
https://subyshare.com/05j2byatwz3w/The.Feels.2017.1080p.BluRay.x264.part5.rar.html
https://subyshare.com/8cy44xic07o5/The.Feels.2017.1080p.BluRay.x264.part6.rar.html
https://subyshare.com/96of1yrb3y02/The.Feels.2017.1080p.BluRay.x264.part7.rar.html