The Escape of Prisoner 614 2018 1080p BluRay x264 DTS-MT

Title: The Escape of Prisoner 614
Year: 2018
Time: 97 min
Genre: Adventure / Comedy / Crime
Directed by: Zach Golden
Starring: Ron Perlman / Martin Starr / Jake McDorman / George Sample III / Andy Animal
IMDB Rating: 4.3
IMDB URL: http://www.imdb.com/title/tt7375578/
Plot:
Two inept, small-town Sheriff’s Deputies catch an escaped prisoner that they believe was wrongly convicted.

Video
ID                                       : 1
Format                                   : AVC
Format/Info                              : Advanced Video Codec
Format profile                           : [email protected]
Format settings                          : CABAC / 5 Ref Frames
Format settings, CABAC                   : Yes
Format settings, ReFrames                : 5 frames
Codec ID                                 : V_MPEG4/ISO/AVC
Duration                                 : 1 h 37 min
Bit rate                                 : 12.4 Mb/s
Width                                    : 1 920 pixels
Height                                   : 804 pixels
Display aspect ratio                     : 2.40:1
Frame rate mode                          : Constant
Frame rate                               : 23.976 (24000/1001) FPS
Color space                              : YUV
Chroma subsampling                       : 4:2:0
Bit depth                                : 8 bits
Scan type                                : Progressive
Bits/(Pixel*Frame)                       : 0.335
Stream size                              : 8.42 GiB (89%)
Title                                    : The.Escape.of.Prisoner.614.2018.1080p.BluRay.x264.DTS-MT
Language                                 : English
Default                                  : Yes
Forced                                   : No

Audio
ID                                       : 2
Format                                   : DTS
Format/Info                              : Digital Theater Systems
Codec ID                                 : A_DTS
Duration                                 : 1 h 37 min
Bit rate mode                            : Constant
Bit rate                                 : 1 509 kb/s
Channel(s)                               : 6 channels
Channel positions                        : Front: L C R, Side: L R, LFE
Sampling rate                            : 48.0 kHz
Frame rate                               : 93.750 FPS (512 SPF)
Bit depth                                : 24 bits
Compression mode                         : Lossy
Stream size                              : 1.03 GiB (11%)
Title                                    : The.Escape.of.Prisoner.614.2018.1080p.BluRay.x264.DTS-MT
Language                                 : English
Default                                  : Yes
Forced                                   : No


Screenshots



Download

https://subyshare.com/udm7tpqw4sny/The.Escape.of.Prisoner.614.2018.1080p.BluRay.x264.part1.rar.html
https://subyshare.com/vgftey5kmeit/The.Escape.of.Prisoner.614.2018.1080p.BluRay.x264.part2.rar.html
https://subyshare.com/zxxfqqgccxw8/The.Escape.of.Prisoner.614.2018.1080p.BluRay.x264.part3.rar.html
https://subyshare.com/8x9csy71fqem/The.Escape.of.Prisoner.614.2018.1080p.BluRay.x264.part4.rar.html
https://subyshare.com/odyr9omuicbm/The.Escape.of.Prisoner.614.2018.1080p.BluRay.x264.part5.rar.html
https://subyshare.com/bmam45zl3gjk/The.Escape.of.Prisoner.614.2018.1080p.BluRay.x264.part6.rar.html
https://subyshare.com/6psw7d9a64lc/The.Escape.of.Prisoner.614.2018.1080p.BluRay.x264.part7.rar.html