The Enemy Below 1957 1080p BluRay X264-AMIABLE

Title: The Enemy Below
Year: 1957
Time: 98 min
Genre: Action / Adventure / Drama / Thriller / War
Directed by: Dick Powell
Starring: Robert Mitchum / Curd Jurgens / David Hedison / Theodore Bikel / Russell Collins
IMDB Rating: 7.6
IMDB URL: http://www.imdb.com/title/tt0050356/
Plot:
During World War II, the USS Haynes, an American destroyer escort discovers a German U-boat in the South Atlantic. A deadly duel between the two ships ensues, and Captain Murrell must draw upon all his experience to defeat the equally experienced German commander. Written by Linda Adams

Video
ID                                       : 1
Format                                   : AVC
Format/Info                              : Advanced Video Codec
Format profile                           : [email protected]
Format settings, CABAC                   : Yes
Format settings, ReFrames                : 5 frames
Codec ID                                 : V_MPEG4/ISO/AVC
Duration                                 : 1 h 37 min
Bit rate                                 : 9 715 kb/s
Width                                    : 1 920 pixels
Height                                   : 816 pixels
Display aspect ratio                     : 2.35:1
Frame rate mode                          : Constant
Frame rate                               : 23.976 (24000/1001) FPS
Color space                              : YUV
Chroma subsampling                       : 4:2:0
Bit depth                                : 8 bits
Scan type                                : Progressive
Bits/(Pixel*Frame)                       : 0.259
Stream size                              : 6.47 GiB (85%)
Writing library                          : x264 core 148 r2597 e86f3a1
Encoding settings                        : cabac=1 / ref=5 / deblock=1:-3:-3 / analyse=0x3:0x113 / me=umh / subme=8 / psy=1 / psy_rd=1.10:0.00 / mixed_ref=1 / me_range=24 / chroma_me=1 / trellis=1 / 8x8dct=1 / cqm=0 / deadzone=21,11 / fast_pskip=0 / chroma_qp_offset=-2 / threads=24 / lookahead_threads=4 / sliced_threads=0 / nr=0 / decimate=1 / interlaced=0 / bluray_compat=0 / constrained_intra=0 / bframes=3 / b_pyramid=2 / b_adapt=2 / b_bias=0 / direct=3 / weightb=1 / open_gop=0 / weightp=2 / keyint=240 / keyint_min=24 / scenecut=40 / intra_refresh=0 / rc_lookahead=50 / rc=2pass / mbtree=1 / bitrate=9715 / ratetol=1.0 / qcomp=0.60 / qpmin=0 / qpmax=69 / qpstep=4 / cplxblur=20.0 / qblur=0.5 / ip_ratio=1.40 / aq=3:0.80
Language                                 : English
Default                                  : Yes
Forced                                   : No
Statistics Tags Issue                    : no_variable_data 1970-01-01 00:00:00 / no_variable_data 2010-02-22 21:41:29
FromStats_BitRate                        : 9717759
FromStats_Duration                       : 01:37:34.891000000
FromStats_FrameCount                     : 140377
FromStats_StreamSize                     : 7112052572

Audio
ID                                       : 2
Format                                   : DTS
Format/Info                              : Digital Theater Systems
Mode                                     : 16
Format settings, Endianness              : Big
Codec ID                                 : A_DTS
Duration                                 : 1 h 37 min
Bit rate mode                            : Constant
Bit rate                                 : 1 509 kb/s
Channel(s)                               : 4 channels
Channel positions                        : Front: L C R, Back: C
Sampling rate                            : 48.0 kHz
Frame rate                               : 93.750 FPS (512 spf)
Bit depth                                : 24 bits
Compression mode                         : Lossy
Stream size                              : 1.03 GiB (13%)
Language                                 : English
Default                                  : Yes
Forced                                   : No
Statistics Tags Issue                    : no_variable_data 1970-01-01 00:00:00 / no_variable_data 2010-02-22 21:41:29
FromStats_BitRate                        : 1508999
FromStats_Duration                       : 01:37:34.902000000
FromStats_FrameCount                     : 548897
FromStats_StreamSize                     : 1104380764

Text
ID                                       : 3
Format                                   : UTF-8
Codec ID                                 : S_TEXT/UTF8
Codec ID/Info                            : UTF-8 Plain Text
Language                                 : English
Default                                  : No
Forced                                   : No
Statistics Tags Issue                    : no_variable_data 1970-01-01 00:00:00 / no_variable_data 2010-02-22 21:41:29
FromStats_BitRate                        : 52
FromStats_Duration                       : 01:35:09.327000000
FromStats_FrameCount                     : 882
FromStats_StreamSize                     : 37531

Menu
00:00:00.000                             : en:00:00:00.000
00:01:31.925                             : en:00:01:31.925
00:07:08.595                             : en:00:07:08.595
00:11:41.910                             : en:00:11:41.910
00:15:30.721                             : en:00:15:30.721
00:21:58.984                             : en:00:21:58.984
00:27:12.548                             : en:00:27:12.548
00:29:42.030                             : en:00:29:42.030
00:36:55.880                             : en:00:36:55.880
00:38:49.244                             : en:00:38:49.244
00:39:55.059                             : en:00:39:55.059
00:44:06.769                             : en:00:44:06.769
00:47:56.332                             : en:00:47:56.332
00:52:13.964                             : en:00:52:13.964
00:54:08.245                             : en:00:54:08.245
00:56:56.913                             : en:00:56:56.913
01:03:01.027                             : en:01:03:01.027
01:05:22.627                             : en:01:05:22.627
01:08:20.555                             : en:01:08:20.555
01:10:40.778                             : en:01:10:40.778
01:14:10.363                             : en:01:14:10.363
01:15:31.819                             : en:01:15:31.819
01:17:02.701                             : en:01:17:02.701
01:20:03.590                             : en:01:20:03.590
01:25:14.234                             : en:01:25:14.234
01:26:55.710                             : en:01:26:55.710
01:32:12.402                             : en:01:32:12.402
01:34:23.700                             : en:01:34:23.700


Download

https://subyshare.com/7qx4zre38zw1/The.Enemy.Below.1958.1080p.BluRay.part1.rar.html
https://subyshare.com/k2etbev7x9sc/The.Enemy.Below.1958.1080p.BluRay.part2.rar.html
https://subyshare.com/fckqkkiye6bk/The.Enemy.Below.1958.1080p.BluRay.part3.rar.html
https://subyshare.com/3459xd48hi2r/The.Enemy.Below.1958.1080p.BluRay.part4.rar.html
https://subyshare.com/ot7jpb2jomje/The.Enemy.Below.1958.1080p.BluRay.part5.rar.html
https://subyshare.com/h07m3b91xioz/The.Enemy.Below.1958.1080p.BluRay.part6.rar.html