The Domestics 2018 1080p AMZN WEBRip DDP5.1 x264-NTG

Title: The Domestics
Year: 2018
Time: 95 min
Genre: Horror / Thriller
Directed by: Mike P. Nelson
Starring: Tyler Hoechlin / Kate Bosworth / Sonoya Mizuno / David Dastmalchian / Lance Reddick
IMDB Rating: 5.5
IMDB URL: http://www.imdb.com/title/tt5591666/
Plot:
In a terrifying post-apocalyptic world inhabited by gangs divided into deadly factions, a husband and wife race desperately across the countryside in search of safety and must work together as they are pushed to the breaking point in order to survive.

Video
ID : 1
Format : AVC
Format/Info : Advanced Video Codec
Format profile : [email protected]
Format settings : CABAC / 4 Ref Frames
Format settings, CABAC : Yes
Format settings, ReFrames : 4 frames
Codec ID : V_MPEG4/ISO/AVC
Duration : 1 h 35 min
Bit rate : 10.0 Mb/s
Width : 1 920 pixels
Height : 800 pixels
Display aspect ratio : 2.40:1
Frame rate mode : Constant
Frame rate : 23.976 (24000/1001) FPS
Color space : YUV
Chroma subsampling : 4:2:0
Bit depth : 8 bits
Scan type : Progressive
Bits/(Pixel*Frame) : 0.272
Stream size : 6.67 GiB (94%)
Default : Yes
Forced : No
Color range : Limited
Color primaries : BT.709
Transfer characteristics : BT.709
Matrix coefficients : BT.709

Audio
ID : 2
Format : E-AC-3
Format/Info : Enhanced Audio Coding 3
Codec ID : A_EAC3
Duration : 1 h 35 min
Bit rate mode : Constant
Bit rate : 640 kb/s
Channel(s) : 6 channels
Channel positions : Front: L C R, Side: L R, LFE
Sampling rate : 48.0 kHz
Frame rate : 187.500 FPS (256 SPF)
Compression mode : Lossy
Stream size : 436 MiB (6%)
Language : English
Service kind : Complete Main
Default : Yes
Forced : No

Text
ID : 3
Format : UTF-8
Codec ID : S_TEXT/UTF8
Codec ID/Info : UTF-8 Plain Text
Duration : 1 h 31 min
Bit rate : 44 b/s
Count of elements : 1006
Stream size : 30.0 KiB (0%)
Title : SDH
Language : English
Default : No
Forced : No

Screenshots



Download

https://subyshare.com/qtmw6alkjlrz/The.Domestics.2018.1080p.AMZN.WEBRip.DDP5.1.part1.rar.html
https://subyshare.com/gtbbgxshvy60/The.Domestics.2018.1080p.AMZN.WEBRip.DDP5.1.part2.rar.html
https://subyshare.com/j7t5bn6avc6y/The.Domestics.2018.1080p.AMZN.WEBRip.DDP5.1.part3.rar.html
https://subyshare.com/vx7abz4jyz42/The.Domestics.2018.1080p.AMZN.WEBRip.DDP5.1.part4.rar.html
https://subyshare.com/2xobc93g4zz9/The.Domestics.2018.1080p.AMZN.WEBRip.DDP5.1.part5.rar.html