The Death of Superman 2018 1080p WEB-DL DD5.1 H264-FGT

Title: The Death of Superman
Year: 2018
Time: 81 min
Genre: Animation / Action / Sci-Fi
Directed by: Jake Castorena / Sam Liu
Starring: Jerry O’Connell / Rebecca Romijn / Rainn Wilson / Rosario Dawson / Nathan Fillion
IMDB Rating: n/A
IMDB URL: http://www.imdb.com/title/tt7167658/
Plot:
Superman battles against an insurmountable foe named Doomsday.

Video
ID                                       : 1
Format                                   : AVC
Format/Info                              : Advanced Video Codec
Format profile                           : [email protected]
Format settings                          : CABAC / 4 Ref Frames
Format settings, CABAC                   : Yes
Format settings, ReFrames                : 4 frames
Codec ID                                 : V_MPEG4/ISO/AVC
Duration                                 : 1 h 20 min
Bit rate                                 : 5 155 kb/s
Width                                    : 1 920 pixels
Height                                   : 1 078 pixels
Display aspect ratio                     : 16:9
Frame rate mode                          : Constant
Frame rate                               : 23.976 FPS
Color space                              : YUV
Chroma subsampling                       : 4:2:0
Bit depth                                : 8 bits
Scan type                                : Progressive
Bits/(Pixel*Frame)                       : 0.104
Stream size                              : 2.91 GiB (93%)
Title                                    : The.Death.of.Superman.2018.1080p.WEB-DL.DD5.1.H264-FGT
Language                                 : English
Default                                  : Yes
Forced                                   : No
Color range                              : Limited
Color primaries                          : BT.709
Transfer characteristics                 : BT.709
Matrix coefficients                      : BT.709

Audio
ID                                       : 2
Format                                   : AC-3
Format/Info                              : Audio Coding 3
Codec ID                                 : A_AC3
Duration                                 : 1 h 20 min
Bit rate mode                            : Constant
Bit rate                                 : 384 kb/s
Channel(s)                               : 6 channels
Channel positions                        : Front: L C R, Side: L R, LFE
Sampling rate                            : 48.0 kHz
Frame rate                               : 31.250 FPS (1536 SPF)
Bit depth                                : 16 bits
Compression mode                         : Lossy
Stream size                              : 222 MiB (7%)
Title                                    : The.Death.of.Superman.2018.1080p.WEB-DL.DD5.1.H264-FGT
Language                                 : English
Service kind                             : Complete Main
Default                                  : Yes
Forced                                   : No

Menu
00:00:00.000                             : en:Chapter 1
00:09:32.000                             : en:Chapter 2
00:20:02.000                             : en:Chapter 3
00:32:29.000                             : en:Chapter 4
00:40:18.000                             : en:Chapter 5
00:51:40.000                             : en:Chapter 6
01:03:31.000                             : en:Chapter 7
01:11:00.000                             : en:Chapter 8
01:17:04.000                             : en:Chapter 9

Screenshots



Download

https://subyshare.com/x3md4maqz7xs/The.Death.of.Superman.2018.1080p.WEB-DL.DD5.1.part1.rar.html
https://subyshare.com/ur5da6n6ev2o/The.Death.of.Superman.2018.1080p.WEB-DL.DD5.1.part2.rar.html
https://subyshare.com/sha6uoi83qh9/The.Death.of.Superman.2018.1080p.WEB-DL.DD5.1.part3.rar.html