The Cured 2017 1080p WEB-DL DD5.1 H264-FGT

Title: The Cured
Year: 2017
Time: 95 min
Genre: Drama / Horror / Sci-Fi
Directed by: David Freyne
Starring: Ellen Page / Sam Keeley / Tom Vaughan-Lawlor / Stuart Graham / Paula Malcomson
IMDB Rating: 5.5
IMDB URL: http://www.imdb.com/title/tt3463106/
Plot:
A disease that turns people into zombies has been cured. The once-infected zombies are discriminated against by society and their own families, which causes social issues to arise. This leads to militant government interference.

Video
ID                                       : 1
Format                                   : AVC
Format/Info                              : Advanced Video Codec
Format profile                           : [email protected]
Format settings                          : CABAC / 5 Ref Frames
Format settings, CABAC                   : Yes
Format settings, ReFrames                : 5 frames
Codec ID                                 : V_MPEG4/ISO/AVC
Duration                                 : 1 h 34 min
Bit rate                                 : 4 628 kb/s
Width                                    : 1 918 pixels
Height                                   : 798 pixels
Display aspect ratio                     : 2.40:1
Frame rate mode                          : Constant
Frame rate                               : 24.000 FPS
Color space                              : YUV
Chroma subsampling                       : 4:2:0
Bit depth                                : 8 bits
Scan type                                : Progressive
Bits/(Pixel*Frame)                       : 0.126
Stream size                              : 3.07 GiB (92%)
Title                                    : The.Cured.2017.1080p.WEB-DL.DD5.1.H264-FGT
Language                                 : English
Default                                  : Yes
Forced                                   : No
Color range                              : Limited
Color primaries                          : BT.709
Transfer characteristics                 : BT.709
Matrix coefficients                      : BT.709

Audio
ID                                       : 2
Format                                   : AC-3
Format/Info                              : Audio Coding 3
Codec ID                                 : A_AC3
Duration                                 : 1 h 34 min
Bit rate mode                            : Constant
Bit rate                                 : 384 kb/s
Channel(s)                               : 6 channels
Channel positions                        : Front: L C R, Side: L R, LFE
Sampling rate                            : 48.0 kHz
Frame rate                               : 31.250 FPS (1536 SPF)
Bit depth                                : 16 bits
Compression mode                         : Lossy
Delay relative to video                  : -42 ms
Stream size                              : 261 MiB (8%)
Title                                    : The.Cured.2017.1080p.WEB-DL.DD5.1.H264-FGT
Language                                 : English
Service kind                             : Complete Main
Default                                  : Yes
Forced                                   : No

Menu
00:00:00.000                             : en:Chapter 1
00:19:14.375                             : en:Chapter 2
00:39:37.000                             : en:Chapter 3
00:56:54.625                             : en:Chapter 4
01:15:01.666                             : en:Chapter 5
01:29:13.998                             : en:Chapter 6

Screenshots



Download

https://subyshare.com/bjdr1k4wspnl/The.Cured.2017.1080p.WEB-DL.DD5.1.part1.rar.html
https://subyshare.com/ejzmdv072082/The.Cured.2017.1080p.WEB-DL.DD5.1.part2.rar.html
https://subyshare.com/2a5drtsg9c3z/The.Cured.2017.1080p.WEB-DL.DD5.1.part3.rar.html