The Crossbreed 2018 1080p WEB-DL DD5.1 H264-FGT

Title: The Crossbreed
Year: 2018
Time: n/A
Genre: Horror / Thriller
Directed by: Biray Dalkiran
Starring: Angela Durazo / Nathan Schellerup / Malinda Farrington / Danny Winn / Katy Bentz
IMDB Rating: 3.6
IMDB URL: http://www.imdb.com/title/tt6205996/
Plot:
The nightmare was about a demonic possession. A long time ago, there was an evil in a small town and it was jealous of the girl and would never let her go, since the devil loved the girl. One night, the evil raped the girl and she became pregnant. After months the girl could not hide her baby, her father figured her secret out and clapped the girl in irons and locked her room door. But the evil put the gun to her father’ temple and saved the girl. The father had a stroke and had been sleeping on the bed for three months and died. Time went on and the girl brought a child into the world. Naturally, people who were living in the village heard the story and they did not want to see neither the girl nor the baby since when the baby was born, plants dried in the field, fishes lost in the lake and people had prayed to the god for rain, but nothing changed in the village. People got so angry, dug a hole in front of the fountain, put her into the hole and threw stones at her face. The girl died soon after. The evil went off the deep end, took a revenge of the village and killed everyone except two sisters because the evil wanted them to take care of its baby…


Video
ID                                       : 1
Format                                   : AVC
Format/Info                              : Advanced Video Codec
Format profile                           : [email protected]
Format settings                          : CABAC / 5 Ref Frames
Format settings, CABAC                   : Yes
Format settings, ReFrames                : 5 frames
Codec ID                                 : V_MPEG4/ISO/AVC
Duration                                 : 1 h 25 min
Bit rate                                 : 4 548 kb/s
Width                                    : 1 920 pixels
Height                                   : 844 pixels
Display aspect ratio                     : 2.25:1
Frame rate mode                          : Constant
Frame rate                               : 23.976 (23976/1000) FPS
Color space                              : YUV
Chroma subsampling                       : 4:2:0
Bit depth                                : 8 bits
Scan type                                : Progressive
Bits/(Pixel*Frame)                       : 0.117
Stream size                              : 2.71 GiB (92%)
Title                                    : The.Crossbreed.2018.1080p.WEB-DL.DD5.1.H264-FGT
Language                                 : English
Default                                  : Yes
Forced                                   : No
Color range                              : Limited
Color primaries                          : BT.709
Transfer characteristics                 : BT.709
Matrix coefficients                      : BT.709

Audio
ID                                       : 2
Format                                   : AC-3
Format/Info                              : Audio Coding 3
Codec ID                                 : A_AC3
Duration                                 : 1 h 25 min
Bit rate mode                            : Constant
Bit rate                                 : 384 kb/s
Channel(s)                               : 6 channels
Channel positions                        : Front: L C R, Side: L R, LFE
Sampling rate                            : 48.0 kHz
Frame rate                               : 31.250 FPS (1536 SPF)
Bit depth                                : 16 bits
Compression mode                         : Lossy
Delay relative to video                  : -42 ms
Stream size                              : 234 MiB (8%)
Title                                    : The.Crossbreed.2018.1080p.WEB-DL.DD5.1.H264-FGT
Language                                 : English
Service kind                             : Complete Main
Default                                  : Yes
Forced                                   : No

Menu
00:00:00.000                             : en:1
00:08:59.539                             : en:2
00:19:11.692                             : en:3
00:30:47.971                             : en:4
00:39:41.087                             : en:5
00:51:58.741                             : en:6
01:01:23.472                             : en:7
01:12:56.623                             : en:8
01:23:23.416                             : en:9

Screenshots



Download

https://subyshare.com/4xn821h12s6o/The.Crossbreed.2018.720p.WEB-DL.DD5.1.part1.rar.html
https://subyshare.com/c4b5cbpab7wd/The.Crossbreed.2018.720p.WEB-DL.DD5.1.part2.rar.html