The Catcher Was a Spy 2018 1080p WEB-DL DD5.1 H264-FGT

Title: The Catcher Was a Spy
Year: 2018
Time: 98 min
Genre: Biography / Drama / War
Directed by: Ben Lewin
Starring: Paul Rudd / Connie Nielsen / Mark Strong / Sienna Miller / Guy Pearce
IMDB Rating: 5.9
IMDB URL: http://www.imdb.com/title/tt4602066/
Plot:
A major league baseball player, Moe Berg, lives a double life working for the Office of Strategic Services.

Video
ID : 1
Format : AVC
Format/Info : Advanced Video Codec
Format profile : [email protected]
Format settings : CABAC / 4 Ref Frames
Format settings, CABAC : Yes
Format settings, ReFrames : 4 frames
Codec ID : V_MPEG4/ISO/AVC
Duration : 1 h 34 min
Bit rate : 4 873 kb/s
Width : 1 920 pixels
Height : 1 036 pixels
Display aspect ratio : 1.85:1
Frame rate mode : Constant
Frame rate : 23.976 (23976/1000) FPS
Color space : YUV
Chroma subsampling : 4:2:0
Bit depth : 8 bits
Scan type : Progressive
Bits/(Pixel*Frame) : 0.102
Stream size : 3.22 GiB (93%)
Title : The.Catcher.Was.a.Spy.2018.1080p.WEB-DL.DD5.1.H264-FGT
Language : English
Default : Yes
Forced : No
Color range : Limited
Color primaries : BT.709
Transfer characteristics : BT.709
Matrix coefficients : BT.709

Audio
ID : 2
Format : AC-3
Format/Info : Audio Coding 3
Codec ID : A_AC3
Duration : 1 h 34 min
Bit rate mode : Constant
Bit rate : 384 kb/s
Channel(s) : 6 channels
Channel positions : Front: L C R, Side: L R, LFE
Sampling rate : 48.0 kHz
Frame rate : 31.250 FPS (1536 SPF)
Bit depth : 16 bits
Compression mode : Lossy
Stream size : 260 MiB (7%)
Title : The.Catcher.Was.a.Spy.2018.1080p.WEB-DL.DD5.1.H264-FGT
Language : English
Service kind : Complete Main
Default : Yes
Forced : No

Text
ID : 3
Format : UTF-8
Codec ID : S_TEXT/UTF8
Codec ID/Info : UTF-8 Plain Text
Duration : 1 h 23 min
Bit rate : 43 b/s
Count of elements : 935
Stream size : 26.9 KiB (0%)
Language : English
Default : Yes
Forced : No

Menu
00:00:00.000 : en:1
00:04:09.000 : en:2
00:10:40.000 : en:3
00:16:21.000 : en:4
00:23:50.000 : en:5
00:31:16.000 : en:6
00:38:46.000 : en:7
00:47:58.000 : en:8
00:52:58.000 : en:9
00:59:51.000 : en:10
01:05:36.000 : en:11
01:14:57.000 : en:12
01:21:13.000 : en:13
01:28:27.000 : en:14

Screenshots



Download

https://subyshare.com/xfudkszqlt1v/The.Catcher.Was.a.Spy.2018.1080p.WEB-DL.DD5.1.part1.rar.html
https://subyshare.com/23of4dmxmgqp/The.Catcher.Was.a.Spy.2018.1080p.WEB-DL.DD5.1.part2.rar.html
https://subyshare.com/9u5dbcn2n3zt/The.Catcher.Was.a.Spy.2018.1080p.WEB-DL.DD5.1.part3.rar.html