The Assassins Code 2018 1080p AMZN WEBRip DDP5.1 x264-SiGMA

Title: The Assassin’s Code
Year: 2018
Time: 95 min
Genre: Thriller
Directed by: David A. Armstrong
Starring: Justin Chatwin / Peter Stormare / Mark Thompson / Robin Thomas / Yancy Butler
IMDB Rating: 5.6
IMDB URL: http://www.imdb.com/title/tt6170804/
Plot:
Rookie Cleveland detective Michael Connelly is desperate to escape from under the shadow of his late father, a detective convicted of a drug scandal within the department when Michael was a boy. When a million dollars’ worth of drugs are stolen from police custody and the detective on the case soon turns up dead, Michael begs his captain for the assignment and the chance to prove himself. But when his investigation points toward a crime network, Michael faces pressure to maintain the status quo as he plays a cat-and-mouse game with the powers that be, while under the watchful eye of a ghost-like assassin ensuring their secrecy.

Video
ID                                       : 1
Format                                   : AVC
Format/Info                              : Advanced Video Codec
Format profile                           : [email protected]
Format settings                          : CABAC / 4 Ref Frames
Format settings, CABAC                   : Yes
Format settings, ReFrames                : 4 frames
Codec ID                                 : V_MPEG4/ISO/AVC
Duration                                 : 1 h 35 min
Bit rate mode                            : Variable
Bit rate                                 : 6 065 kb/s
Maximum bit rate                         : 15.0 Mb/s
Width                                    : 1 920 pixels
Height                                   : 800 pixels
Display aspect ratio                     : 2.40:1
Frame rate mode                          : Constant
Frame rate                               : 23.976 (24000/1001) FPS
Color space                              : YUV
Chroma subsampling                       : 4:2:0
Bit depth                                : 8 bits
Scan type                                : Progressive
Bits/(Pixel*Frame)                       : 0.165
Stream size                              : 4.06 GiB (90%)
Default                                  : Yes
Forced                                   : No
Color range                              : Limited
Color primaries                          : BT.709
Transfer characteristics                 : BT.709
Matrix coefficients                      : BT.709

Audio
ID                                       : 2
Format                                   : E-AC-3
Format/Info                              : Enhanced Audio Coding 3
Codec ID                                 : A_EAC3
Duration                                 : 1 h 35 min
Bit rate mode                            : Constant
Bit rate                                 : 640 kb/s
Channel(s)                               : 6 channels
Channel positions                        : Front: L C R, Side: L R, LFE
Sampling rate                            : 48.0 kHz
Frame rate                               : 187.500 FPS (256 SPF)
Compression mode                         : Lossy
Stream size                              : 439 MiB (10%)
Language                                 : English
Service kind                             : Complete Main
Default                                  : Yes
Forced                                   : No

Text
ID                                       : 3
Format                                   : UTF-8
Codec ID                                 : S_TEXT/UTF8
Codec ID/Info                            : UTF-8 Plain Text
Duration                                 : 1 h 35 min
Bit rate                                 : 61 b/s
Count of elements                        : 1421
Stream size                              : 43.2 KiB (0%)
Language                                 : English
Default                                  : No
Forced                                   : No

 

Screenshots



Download

https://subyshare.com/9j9m16eh3q2j/The.Assassins.Code.2018.1080p.AMZN.WEBRip.DDP5.1.part1.rar.html
https://subyshare.com/qehjncmr0tm1/The.Assassins.Code.2018.1080p.AMZN.WEBRip.DDP5.1.part2.rar.html
https://subyshare.com/rd06nc0uyf5y/The.Assassins.Code.2018.1080p.AMZN.WEBRip.DDP5.1.part3.rar.html
https://subyshare.com/o00kjf3gaamz/The.Assassins.Code.2018.1080p.AMZN.WEBRip.DDP5.1.part4.rar.html