Tess 1979 REMASTERED 1080p BluRay X264-AMIABLE

Title: Tess
Year: 1979
Time: 186 min
Genre: Drama / Romance
Directed by: Roman Polanski
Starring: John Collin / Tony Church / Nastassja Kinski / Brigid Erin Bates / Jeanne Biras
IMDB Rating: 7.3
IMDB URL: http://www.imdb.com/title/tt0080009/
Plot:
Wessex County, England during the Victorian era. Christian values dominate what are social mores. These mores and her interactions with two men play a large part in what happens in the young life of peasant girl, the shy, innocent, proper yet proud Tess Durbeyfield. The first of these men is Alec d’Urberville. After learning from a local historian that they are really descendants of the aristocratic d’Urberville family which has died out due to lack of male heirs, Tess’ parents send her to a nearby mansion where they know some d’Urbervilles actually reside. This move is in order for the family to gain some benefit from their heritage. Upon her arrival at the mansion, Tess quickly learns that the family of Tess’ “cousin” Alec are not true d’Urbervilles, but rather an opportunistic lot who bought the family name in order to improve their own standing in life. Tess is pulled between what she was sent to accomplish for her family against her general disdain for Alec, who will give her anything she wants in return for sexual favors. The second of these men is Angel Clare, the son of a parson and an apprentice farmer. Angel and Tess fall in love with each other. Tess has to decide if she will divulge to Angel her past relationship with Alec, which if she does may jeopardize their own relationship. But if she doesn’t, Tess also has to figure out if the secret will haunt her and thus jeopardize their relationship in other ways. Written by Huggo

Video
ID                                       : 1
Format                                   : AVC
Format/Info                              : Advanced Video Codec
Format profile                           : [email protected]
Format settings, CABAC                   : Yes
Format settings, ReFrames                : 5 frames
Codec ID                                 : V_MPEG4/ISO/AVC
Duration                                 : 2h 51mn
Bit rate                                 : 8 520 Kbps
Width                                    : 1 920 pixels
Height                                   : 808 pixels
Display aspect ratio                     : 2.40:1
Frame rate mode                          : Constant
Frame rate                               : 23.976 (24000/1001) fps
Color space                              : YUV
Chroma subsampling                       : 4:2:0
Bit depth                                : 8 bits
Scan type                                : Progressive
Bits/(Pixel*Frame)                       : 0.229
Stream size                              : 9.98 GiB (83%)
Writing library                          : x264 core 142 r2389 956c8d8
Encoding settings                        : cabac=1 / ref=5 / deblock=1:-3:-3 / analyse=0x3:0x113 / me=umh / subme=9 / psy=1 / psy_rd=1.10:0.00 / mixed_ref=1 / me_range=32 / chroma_me=1 / trellis=1 / 8x8dct=1 / cqm=0 / deadzone=21,11 / fast_pskip=1 / chroma_qp_offset=-2 / threads=12 / lookahead_threads=1 / sliced_threads=0 / nr=0 / decimate=1 / interlaced=0 / bluray_compat=0 / constrained_intra=0 / bframes=3 / b_pyramid=2 / b_adapt=2 / b_bias=0 / direct=3 / weightb=1 / open_gop=0 / weightp=2 / keyint=240 / keyint_min=24 / scenecut=40 / intra_refresh=0 / rc=2pass / mbtree=0 / bitrate=8520 / ratetol=1.0 / qcomp=0.60 / qpmin=0 / qpmax=69 / qpstep=4 / cplxblur=20.0 / qblur=0.5 / ip_ratio=1.40 / pb_ratio=1.30 / aq=1:0.80
Language                                 : English
Default                                  : Yes
Forced                                   : No

Audio
ID                                       : 2
Format                                   : DTS
Format/Info                              : Digital Theater Systems
Mode                                     : 16
Format settings, Endianness              : Big
Codec ID                                 : A_DTS
Duration                                 : 2h 51mn
Bit rate mode                            : Constant
Bit rate                                 : 1 509 Kbps
Channel(s)                               : 6 channels
Channel positions                        : Front: L C R, Side: L R, LFE
Sampling rate                            : 48.0 KHz
Frame rate                               : 93.750 fps (512 spf)
Bit depth                                : 24 bits
Compression mode                         : Lossy
Stream size                              : 1.81 GiB (15%)
Language                                 : English
Default                                  : Yes
Forced                                   : No

Text #1
ID                                       : 3
Format                                   : UTF-8
Codec ID                                 : S_TEXT/UTF8
Codec ID/Info                            : UTF-8 Plain Text
Title                                    : SDH
Language                                 : English
Default                                  : No
Forced                                   : No

Text #2
ID                                       : 4
Format                                   : UTF-8
Codec ID                                 : S_TEXT/UTF8
Codec ID/Info                            : UTF-8 Plain Text
Language                                 : English
Default                                  : No
Forced                                   : No

Menu
00:00:00.000                             : en:00:00:00.000
00:07:34.287                             : en:00:07:34.287
00:11:32.025                             : en:00:11:32.025
00:15:42.400                             : en:00:15:42.400
00:23:49.511                             : en:00:23:49.511
00:32:34.953                             : en:00:32:34.953
00:42:06.858                             : en:00:42:06.858
00:45:18.549                             : en:00:45:18.549
00:54:03.449                             : en:00:54:03.449
01:00:41.721                             : en:01:00:41.721
01:04:15.268                             : en:01:04:15.268
01:11:56.145                             : en:01:11:56.145
01:18:44.887                             : en:01:18:44.887
01:27:37.043                             : en:01:27:37.043
01:44:36.145                             : en:01:44:36.145
01:51:15.711                             : en:01:51:15.711
02:00:24.300                             : en:02:00:24.300
02:05:13.923                             : en:02:05:13.923
02:12:23.644                             : en:02:12:23.644
02:23:49.454                             : en:02:23:49.454
02:30:05.205                             : en:02:30:05.205
02:37:30.149                             : en:02:37:30.149
02:44:24.980                             : en:02:44:24.980
02:50:24.423                             : en:02:50:24.423

Screenshots






Download

https://subyshare.com/urgxc0dmn604/Tess.1978.REMASTERED.1080p.BluRay.part01.rar.html
https://subyshare.com/8211sr358aw3/Tess.1978.REMASTERED.1080p.BluRay.part02.rar.html
https://subyshare.com/ema08hk0ry61/Tess.1978.REMASTERED.1080p.BluRay.part03.rar.html
https://subyshare.com/31om4n4gzniy/Tess.1978.REMASTERED.1080p.BluRay.part04.rar.html
https://subyshare.com/e5khje3xxwkk/Tess.1978.REMASTERED.1080p.BluRay.part05.rar.html
https://subyshare.com/8dajnx8beup8/Tess.1978.REMASTERED.1080p.BluRay.part06.rar.html
https://subyshare.com/mxf6i8c2hz7s/Tess.1978.REMASTERED.1080p.BluRay.part07.rar.html
https://subyshare.com/3rdvl4airl4r/Tess.1978.REMASTERED.1080p.BluRay.part08.rar.html
https://subyshare.com/dzdqi3yx5z2m/Tess.1978.REMASTERED.1080p.BluRay.part09.rar.html