Teiichi Battle of Supreme High 2017 1080p BluRay x264 DTS-WiKi

Title: Teiichi no kuni
Year: 2017
Time: 118 min
Genre: Drama / Drama
Directed by: Akira Nagai
Starring: Masaki Suda / Y没dai Chiba / Sh么tar么 Mamiya / Mei Nagano / Sh没hei Nomura
IMDB Rating: 7.3
IMDB URL: http://www.imdb.com/title/tt5293604/
Plot:
Teiichi dreams of one day being the ruler of his own empire, but to get there he needs to make sure that his candidate for class president at his elite high school wins the election. This is a high school election fought with all the fervor or a nasty, national campaign. Lies, bribery, sabotage and scandal all come into play as the boys fight it out to determine who will be the next class president.

Video
ID                                       : 1
Format                                   : AVC
Format/Info                              : Advanced Video Codec
Format profile                           : [email protected]
Format settings                          : CABAC / 5 Ref Frames
Format settings, CABAC                   : Yes
Format settings, ReFrames                : 5 frames
Codec ID                                 : V_MPEG4/ISO/AVC
Duration                                 : 1 h 57 min
Bit rate                                 : 10.3 Mb/s
Width                                    : 1 920 pixels
Height                                   : 804 pixels
Display aspect ratio                     : 2.40:1
Frame rate mode                          : Constant
Frame rate                               : 23.976 (24000/1001) FPS
Color space                              : YUV
Chroma subsampling                       : 4:2:0
Bit depth                                : 8 bits
Scan type                                : Progressive
Bits/(Pixel*Frame)                       : 0.278
Stream size                              : 8.47 GiB (93%)
Writing library                          : x264 core 129 r2245+704+36 8e61944 tMod+MixAQ [[email protected]:2:0 X86_64]
Encoding settings                        : cabac=1 / ref=5 / deblock=1:-3:-3 / analyse=0x3:0x133 / me=umh / subme=11 / psy=1 / fade_compensate=0.00 / psy_rd=1.05:0.10 / mixed_ref=1 / me_range=32 / chroma_me=1 / trellis=2 / 8x8dct=1 / cqm=0 / deadzone=21,11 / fast_pskip=0 / chroma_qp_offset=-3 / threads=18 / lookahead_threads=3 / sliced_threads=0 / nr=0 / decimate=0 / interlaced=0 / bluray_compat=0 / constrained_intra=0 / fgo=0 / bframes=10 / b_pyramid=2 / b_adapt=2 / b_bias=0 / direct=3 / weightb=1 / open_gop=0 / weightp=2 / keyint=250 / keyint_min=23 / scenecut=40 / intra_refresh=0 / rc=2pass / mbtree=0 / bitrate=10290 / ratetol=1.0 / qcomp=0.70 / qpmin=0 / qpmax=69 / qpstep=4 / cplxblur=20.0 / qblur=0.5 / ip_ratio=1.40 / pb_ratio=1.30 / aq=1 / aq-strength=0.90 / aq-sensitivity=10.00 / aq-ifactor=1.00 / aq-pfactor=1.00 / aq-bfactor=1.00 / aq2=0
Language                                 : Japanese
Default                                  : Yes
Forced                                   : No

Audio
ID                                       : 2
Format                                   : DTS
Format/Info                              : Digital Theater Systems
Codec ID                                 : A_DTS
Duration                                 : 1 h 57 min
Bit rate mode                            : Constant
Bit rate                                 : 768 kb/s
Channel(s)                               : 6 channels
Channel positions                        : Front: L C R, Side: L R, LFE
Sampling rate                            : 48.0 kHz
Frame rate                               : 93.750 FPS (512 SPF)
Bit depth                                : 24 bits
Compression mode                         : Lossy
Stream size                              : 648 MiB (7%)
Language                                 : Japanese
Default                                  : Yes
Forced                                   : No

Text #1
ID                                       : 3
Format                                   : UTF-8
Codec ID                                 : S_TEXT/UTF8
Codec ID/Info                            : UTF-8 Plain Text
Duration                                 : 1 h 57 min
Bit rate                                 : 55 b/s
Count of elements                        : 2125
Stream size                              : 47.7 KiB (0%)
Title                                    : Simplified
Language                                 : Chinese
Default                                  : Yes
Forced                                   : No

Text #2
ID                                       : 4
Format                                   : UTF-8
Codec ID                                 : S_TEXT/UTF8
Codec ID/Info                            : UTF-8 Plain Text
Duration                                 : 1 h 57 min
Bit rate                                 : 55 b/s
Count of elements                        : 2125
Stream size                              : 47.7 KiB (0%)
Title                                    : Traditional
Language                                 : Chinese
Default                                  : No
Forced                                   : No

Menu
00:00:00.000                             : en:00:00:00.000
00:02:47.917                             : en:00:02:47.917
00:03:40.887                             : en:00:03:40.887
00:07:22.984                             : en:00:07:22.984
00:10:03.728                             : en:00:10:03.728
00:14:30.995                             : en:00:14:30.995
00:17:59.078                             : en:00:17:59.078
00:23:58.854                             : en:00:23:58.854
00:34:01.456                             : en:00:34:01.456
00:42:39.556                             : en:00:42:39.556
00:47:15.123                             : en:00:47:15.123
00:50:18.056                             : en:00:50:18.056
00:52:33.859                             : en:00:52:33.859
00:56:44.692                             : en:00:56:44.692
01:01:04.535                             : en:01:01:04.535
01:07:29.128                             : en:01:07:29.128
01:14:02.521                             : en:01:14:02.521
01:20:17.229                             : en:01:20:17.229
01:24:01.995                             : en:01:24:01.995
01:30:08.903                             : en:01:30:08.903
01:40:20.639                             : en:01:40:20.639
01:43:08.432                             : en:01:43:08.432
01:51:03.948                             : en:01:51:03.948
01:54:12.303                             : en:01:54:12.303

Download:

https://subyshare.com/235r1t4654o8/Teiichi.Battle.of.Supreme.High.2017.1080p.BluRay.x264.part1.rar.html
https://subyshare.com/31nau0txd6kx/Teiichi.Battle.of.Supreme.High.2017.1080p.BluRay.x264.part2.rar.html
https://subyshare.com/h26ozels52zs/Teiichi.Battle.of.Supreme.High.2017.1080p.BluRay.x264.part3.rar.html
https://subyshare.com/nc0s5qzwlghk/Teiichi.Battle.of.Supreme.High.2017.1080p.BluRay.x264.part4.rar.html
https://subyshare.com/y8pp9dat8mmu/Teiichi.Battle.of.Supreme.High.2017.1080p.BluRay.x264.part5.rar.html
https://subyshare.com/6xm10aa2bw4o/Teiichi.Battle.of.Supreme.High.2017.1080p.BluRay.x264.part6.rar.html
https://subyshare.com/1bth27edt61y/Teiichi.Battle.of.Supreme.High.2017.1080p.BluRay.x264.part7.rar.html

Leave a Reply

Your email address will not be published. Required fields are marked *