Tango One 2018 1080p WEB-DL DD5.1 H264-FGT

Title: Tango One
Year: 2018
Time: n/A
Genre: Crime / Drama
Directed by: Sacha Bennett
Starring: Richie Campbell / Vincent Regan / Sophie Colquhoun / Enrique Arce / Joseph Millson
IMDB Rating: n/A
IMDB URL: http://www.imdb.com/title/tt5749570/
Plot:
TANGO ONE is a fast-paced crime thriller about how far one man will go to rescue his daughter, and save his criminal empire from collapse. When three undercover recruits are assigned an impossible mission to take down one of the world’s most wanted man, notorious drug dealer, Den Donovan (Vincent Regan), they have no idea who they are dealing with. As the undercover recruits inch closer to their target, they are each drawn in by the charismatic criminal leader – too close, perhaps, to remember the rules. Vincent Regan gives a career-defining performance as a menacing, modern godfather in TANGO ONE – a heart-stopping thriller where crime, corruption and power know no limits.

Video
ID                                       : 1
Format                                   : AVC
Format/Info                              : Advanced Video Codec
Format profile                           : [email protected]
Format settings                          : CABAC / 5 Ref Frames
Format settings, CABAC                   : Yes
Format settings, ReFrames                : 5 frames
Codec ID                                 : V_MPEG4/ISO/AVC
Duration                                 : 1 h 52 min
Bit rate                                 : 4 551 kb/s
Width                                    : 1 916 pixels
Height                                   : 796 pixels
Display aspect ratio                     : 2.40:1
Frame rate mode                          : Constant
Frame rate                               : 23.976 (23976/1000) FPS
Color space                              : YUV
Chroma subsampling                       : 4:2:0
Bit depth                                : 8 bits
Scan type                                : Progressive
Bits/(Pixel*Frame)                       : 0.124
Stream size                              : 3.57 GiB (92%)
Title                                    : Tango.One.2018.1080p.WEB-DL.DD5.1.H264-FGT
Language                                 : English
Default                                  : Yes
Forced                                   : No
Color range                              : Limited
Color primaries                          : BT.709
Transfer characteristics                 : BT.709
Matrix coefficients                      : BT.709

Audio
ID                                       : 2
Format                                   : AC-3
Format/Info                              : Audio Coding 3
Codec ID                                 : A_AC3
Duration                                 : 1 h 52 min
Bit rate mode                            : Constant
Bit rate                                 : 384 kb/s
Channel(s)                               : 6 channels
Channel positions                        : Front: L C R, Side: L R, LFE
Sampling rate                            : 48.0 kHz
Frame rate                               : 31.250 FPS (1536 SPF)
Bit depth                                : 16 bits
Compression mode                         : Lossy
Delay relative to video                  : -43 ms
Stream size                              : 308 MiB (8%)
Title                                    : Tango.One.2018.1080p.WEB-DL.DD5.1.H264-FGT
Language                                 : English
Service kind                             : Complete Main
Default                                  : Yes
Forced                                   : No

Menu
00:00:00.000                             : en:1
00:05:06.848                             : en:2
00:11:47.623                             : en:3
00:16:15.807                             : en:4
00:23:31.409                             : en:5
00:29:27.973                             : en:6
00:37:40.465                             : en:7
00:46:23.029                             : en:8
00:54:51.912                             : en:9
01:01:31.394                             : en:10
01:10:08.327                             : en:11
01:18:55.854                             : en:12
01:27:05.927                             : en:13
01:34:21.570                             : en:14
01:43:04.050                             : en:15
01:49:58.881                             : en:16


Screenshots



Download

https://subyshare.com/n76lx1by4q4v/Tango.One.2018.720p.WEB-DL.DD5.1.part1.rar.html
https://subyshare.com/qztxh2y5cg12/Tango.One.2018.720p.WEB-DL.DD5.1.part2.rar.html
https://subyshare.com/r580vatpn4pq/Tango.One.2018.720p.WEB-DL.DD5.1.part3.rar.html