Spinning Man 2018 1080p BluRay x264 DTS-MT

Title: Spinning Man
Year: 2018
Time: 100 min
Genre: Drama / Mystery / Thriller
Directed by: Simon Kaijser
Starring: Guy Pearce / Pierce Brosnan / Minnie Driver / Alexandra Shipp / Odeya Rush
IMDB Rating: 5.5
IMDB URL: http://www.imdb.com/title/tt5616294/
Plot:
Evan Birch is a family man and esteemed professor at a distinguished college, where his charm and reputation have made his philosophy class very popular. When a female student named Joyce goes missing, Evan’s previous off-campus dalliances make his wife question his alibi. Gruff police Detective Malloy has even more reason to be suspicious when crucial evidence makes Evan the prime suspect in Joyce’s disappearance. Suddenly, the questions Evan faces aren’t merely academic – they’re a matter of life or death.

Video
ID                                       : 1
Format                                   : AVC
Format/Info                              : Advanced Video Codec
Format profile                           : [email protected]
Format settings                          : CABAC / 5 Ref Frames
Format settings, CABAC                   : Yes
Format settings, ReFrames                : 5 frames
Codec ID                                 : V_MPEG4/ISO/AVC
Duration                                 : 1 h 40 min
Bit rate                                 : 15.0 Mb/s
Width                                    : 1 920 pixels
Height                                   : 804 pixels
Display aspect ratio                     : 2.40:1
Frame rate mode                          : Constant
Frame rate                               : 23.976 (24000/1001) FPS
Color space                              : YUV
Chroma subsampling                       : 4:2:0
Bit depth                                : 8 bits
Scan type                                : Progressive
Bits/(Pixel*Frame)                       : 0.405
Stream size                              : 10.5 GiB (91%)
Title                                    : Spinning.Man.2018.1080p.BluRay.x264.DTS-MT
Language                                 : English
Default                                  : Yes
Forced                                   : No

Audio
ID                                       : 2
Format                                   : DTS
Format/Info                              : Digital Theater Systems
Codec ID                                 : A_DTS
Duration                                 : 1 h 40 min
Bit rate mode                            : Constant
Bit rate                                 : 1 509 kb/s
Channel(s)                               : 6 channels
Channel positions                        : Front: L C R, Side: L R, LFE
Sampling rate                            : 48.0 kHz
Frame rate                               : 93.750 FPS (512 SPF)
Bit depth                                : 24 bits
Compression mode                         : Lossy
Stream size                              : 1.06 GiB (9%)
Title                                    : Spinning.Man.2018.1080p.BluRay.x264.DTS-MT
Language                                 : English
Default                                  : Yes
Forced                                   : No

Screenshots



Download

https://subyshare.com/7tilgjavrxjs/Spinning.Man.2018.1080p.BluRay.x264.part01.rar.html
https://subyshare.com/m6k32alsdcin/Spinning.Man.2018.1080p.BluRay.x264.part02.rar.html
https://subyshare.com/2ddwbt5dnspr/Spinning.Man.2018.1080p.BluRay.x264.part03.rar.html
https://subyshare.com/00getigyfqrq/Spinning.Man.2018.1080p.BluRay.x264.part04.rar.html
https://subyshare.com/2dblguuxp99j/Spinning.Man.2018.1080p.BluRay.x264.part05.rar.html
https://subyshare.com/qats1rmj3oiw/Spinning.Man.2018.1080p.BluRay.x264.part06.rar.html
https://subyshare.com/2rithlksmtqo/Spinning.Man.2018.1080p.BluRay.x264.part07.rar.html
https://subyshare.com/ozn9yf7mwl8x/Spinning.Man.2018.1080p.BluRay.x264.part08.rar.html
https://subyshare.com/2rw6mg3vivei/Spinning.Man.2018.1080p.BluRay.x264.part09.rar.html