Small Town Crime 2017 1080p BluRay x264 DTS-MT

Title: Small Town Crime
Year: 2017
Time: 91 min
Genre: Crime / Mystery / Thriller
Directed by: Eshom Nelms / Ian Nelms
Starring: John Hawkes / Anthony Anderson / Octavia Spencer / Robert Forster / Clifton Collins Jr.
IMDB Rating: 6.6
IMDB URL: http://www.imdb.com/title/tt5751998/
Plot:
An alcoholic ex-cop (Hawkes) finds the body of a young woman and, through an act of self-redemption, becomes hell-bent on finding the killer but unwittingly puts his family in danger and gets caught up with several dark characters along the way. Written by Ian Nelms

Video
ID                                       : 1
Format                                   : AVC
Format/Info                              : Advanced Video Codec
Format profile                           : [email protected]
Format settings                          : CABAC / 5 Ref Frames
Format settings, CABAC                   : Yes
Format settings, ReFrames                : 5 frames
Codec ID                                 : V_MPEG4/ISO/AVC
Duration                                 : 1 h 32 min
Bit rate                                 : 10.7 Mb/s
Width                                    : 1 920 pixels
Height                                   : 804 pixels
Display aspect ratio                     : 2.40:1
Frame rate mode                          : Constant
Frame rate                               : 23.976 (24000/1001) FPS
Color space                              : YUV
Chroma subsampling                       : 4:2:0
Bit depth                                : 8 bits
Scan type                                : Progressive
Bits/(Pixel*Frame)                       : 0.290
Stream size                              : 6.91 GiB (88%)
Title                                    : Small.Town.Crime.2017.1080p.BluRay.x264.DTS-MT
Default                                  : Yes
Forced                                   : No

Audio
ID                                       : 2
Format                                   : DTS
Format/Info                              : Digital Theater Systems
Codec ID                                 : A_DTS
Duration                                 : 1 h 32 min
Bit rate mode                            : Constant
Bit rate                                 : 1 509 kb/s
Channel(s)                               : 6 channels
Channel positions                        : Front: L C R, Side: L R, LFE
Sampling rate                            : 48.0 kHz
Frame rate                               : 93.750 FPS (512 SPF)
Bit depth                                : 24 bits
Compression mode                         : Lossy
Stream size                              : 994 MiB (12%)
Title                                    : Small.Town.Crime.2017.1080p.BluRay.x264.DTS-MT
Language                                 : English
Default                                  : Yes
Forced                                   : No

Screenshots



Download

https://subyshare.com/wha0gdlzm0nj/Small.Town.Crime.2017.1080p.BluRay.x264.part1.rar.html
https://subyshare.com/3yinxyl558zb/Small.Town.Crime.2017.1080p.BluRay.x264.part2.rar.html
https://subyshare.com/3u50rj6bqr94/Small.Town.Crime.2017.1080p.BluRay.x264.part3.rar.html
https://subyshare.com/pr1c3isw63sr/Small.Town.Crime.2017.1080p.BluRay.x264.part4.rar.html
https://subyshare.com/ukbzikep8cvr/Small.Town.Crime.2017.1080p.BluRay.x264.part5.rar.html
https://subyshare.com/ou8fz1wb5hwe/Small.Town.Crime.2017.1080p.BluRay.x264.part6.rar.html