Shifting Gears 2018 1080p WEB-DL DD5.1 H264-FGT

Title: Shifting Gears
Year: 2018
Time: 102 min
Genre: Action / Comedy / Family / Sport
Directed by: Jason Winn
Starring: C. Thomas Howell / Brooke Langton / John Ratzenberger / M.C. Gainey / M. Emmet Walsh
IMDB Rating: 6.2
IMDB URL: http://www.imdb.com/title/tt4264610/
Plot:
Tom, an over-worked husband and father, abandons his dead-end job to follow his dream of owning his own business. The only problem: he invested everything in a mechanic shop that has a lien in favor of his arch enemy and must now enter a dirt track race to win the prize money and save his family from ruin.

Video
ID                                       : 1
Format                                   : AVC
Format/Info                              : Advanced Video Codec
Format profile                           : [email protected]
Format settings                          : CABAC / 4 Ref Frames
Format settings, CABAC                   : Yes
Format settings, ReFrames                : 4 frames
Codec ID                                 : V_MPEG4/ISO/AVC
Duration                                 : 1 h 41 min
Bit rate                                 : 5 154 kb/s
Width                                    : 1 920 pixels
Height                                   : 1 080 pixels
Display aspect ratio                     : 16:9
Frame rate mode                          : Constant
Frame rate                               : 23.976 (23976/1000) FPS
Color space                              : YUV
Chroma subsampling                       : 4:2:0
Bit depth                                : 8 bits
Scan type                                : Progressive
Bits/(Pixel*Frame)                       : 0.104
Stream size                              : 3.66 GiB (93%)
Title                                    : Shifting.Gears.2018.1080p.WEB-DL.DD5.1.H.264-FGT
Language                                 : English
Default                                  : Yes
Forced                                   : No
Color range                              : Limited
Color primaries                          : BT.709
Transfer characteristics                 : BT.709
Matrix coefficients                      : BT.709

Audio
ID                                       : 2
Format                                   : AC-3
Format/Info                              : Audio Coding 3
Codec ID                                 : A_AC3
Duration                                 : 1 h 41 min
Bit rate mode                            : Constant
Bit rate                                 : 384 kb/s
Channel(s)                               : 6 channels
Channel positions                        : Front: L C R, Side: L R, LFE
Sampling rate                            : 48.0 kHz
Frame rate                               : 31.250 FPS (1536 SPF)
Bit depth                                : 16 bits
Compression mode                         : Lossy
Stream size                              : 279 MiB (7%)
Title                                    : Shifting.Gears.2018.1080p.WEB-DL.DD5.1.H.264-FGT
Language                                 : English
Service kind                             : Complete Main
Default                                  : Yes
Forced                                   : No

Text
ID                                       : 3
Format                                   : UTF-8
Codec ID                                 : S_TEXT/UTF8
Codec ID/Info                            : UTF-8 Plain Text
Duration                                 : 1 h 41 min
Bit rate                                 : 67 b/s
Count of elements                        : 1657
Stream size                              : 50.2 KiB (0%)
Language                                 : English
Default                                  : Yes
Forced                                   : No

Menu
00:00:00.000                             : en:1
00:12:38.008                             : en:2
00:23:03.591                             : en:3
00:33:28.048                             : en:4
00:43:47.667                             : en:5
00:56:10.159                             : en:6
01:08:57.384                             : en:7
01:18:11.396                             : en:8
01:30:20.792                             : en:9
01:38:32.617                             : en:10

Screenshots



Download

https://subyshare.com/x5flmw958h9w/Shifting.Gears.2018.1080p.WEB-DL.DD5.1.H.part1.rar.html
https://subyshare.com/ef5i7kpv95b8/Shifting.Gears.2018.1080p.WEB-DL.DD5.1.H.part2.rar.html
https://subyshare.com/n07blo2j0agm/Shifting.Gears.2018.1080p.WEB-DL.DD5.1.H.part3.rar.html