Saturday Church 2017 1080p WEB-DL DD5.1 H264-FGT

Title: Saturday Church
Year: 2017
Time: 82 min
Genre: Drama / Fantasy / Musical
Directed by: Damon Cardasis
Starring: Margot Bingham / Regina Taylor / Indya Moore / Evander Duck Jr. / Peter Y. Kim
IMDB Rating: 5.8
IMDB URL: http://www.imdb.com/title/tt5654600/
Plot:
A 14 year-old-boy, struggling with gender identity and religion, begins to use fantasy to escape his life in the inner city and find his passion in the process.

Video
ID                                       : 1
Format                                   : AVC
Format/Info                              : Advanced Video Codec
Format profile                           : [email protected]
Format settings                          : CABAC / 5 Ref Frames
Format settings, CABAC                   : Yes
Format settings, ReFrames                : 5 frames
Codec ID                                 : V_MPEG4/ISO/AVC
Duration                                 : 1 h 22 min
Bit rate                                 : 4 563 kb/s
Width                                    : 1 920 pixels
Height                                   : 798 pixels
Display aspect ratio                     : 2.40:1
Frame rate mode                          : Constant
Frame rate                               : 23.976 (24000/1001) FPS
Color space                              : YUV
Chroma subsampling                       : 4:2:0
Bit depth                                : 8 bits
Scan type                                : Progressive
Bits/(Pixel*Frame)                       : 0.124
Stream size                              : 2.63 GiB (92%)
Title                                    : Saturday.Church.2017.1080p.WEB-DL.DD5.1.H.264-FGT
Language                                 : English
Default                                  : Yes
Forced                                   : No
Color range                              : Limited
Color primaries                          : BT.709
Transfer characteristics                 : BT.709
Matrix coefficients                      : BT.709

Audio
ID                                       : 2
Format                                   : AC-3
Format/Info                              : Audio Coding 3
Codec ID                                 : A_AC3
Duration                                 : 1 h 22 min
Bit rate mode                            : Constant
Bit rate                                 : 384 kb/s
Channel(s)                               : 6 channels
Channel positions                        : Front: L C R, Side: L R, LFE
Sampling rate                            : 48.0 kHz
Frame rate                               : 31.250 FPS (1536 SPF)
Bit depth                                : 16 bits
Compression mode                         : Lossy
Stream size                              : 227 MiB (8%)
Title                                    : Saturday.Church.2017.1080p.WEB-DL.DD5.1.H.264-FGT
Language                                 : English
Service kind                             : Complete Main
Default                                  : Yes
Forced                                   : No

Text
ID                                       : 3
Format                                   : UTF-8
Codec ID                                 : S_TEXT/UTF8
Codec ID/Info                            : UTF-8 Plain Text
Duration                                 : 1 h 19 min
Bit rate                                 : 43 b/s
Count of elements                        : 872
Stream size                              : 25.6 KiB (0%)
Language                                 : English
Default                                  : Yes
Forced                                   : No

Menu
00:00:00.000                             : en:1
00:04:45.952                             : en:2
00:09:23.145                             : en:3
00:15:25.966                             : en:4
00:19:26.414                             : en:5
00:25:01.916                             : en:6
00:30:09.598                             : en:7
00:34:29.941                             : en:8
00:38:53.120                             : en:9
00:44:17.819                             : en:10
00:50:55.883                             : en:11
00:54:20.212                             : en:12
01:00:14.024                             : en:13
01:05:53.655                             : en:14
01:11:12.432                             : en:15
01:14:14.864                             : en:16

Screenshots



Download

https://subyshare.com/5f86ksi2oll5/Saturday.Church.2017.1080p.WEB-DL.DD5.1.H.part1.rar.html
https://subyshare.com/3r6b0urgymjf/Saturday.Church.2017.1080p.WEB-DL.DD5.1.H.part2.rar.html