Run Silent Run Deep 1958 1080p BluRay x264-HD4U

Title: Run Silent Run Deep
Year: 1958
Time: 93 min
Genre: War / Action / Drama
Directed by: Robert Wise
Starring: Clark Gable / Burt Lancaster / Jack Warden / Brad Dexter / Don Rickles
IMDB Rating: 7.4
IMDB URL: http://www.imdb.com/title/tt0052151/
Plot:
The captain of a submarine sunk by the Japanese during WWII is finally given a chance to skipper another sub after a year of working a desk job. His singleminded determination for revenge against the destroyer that sunk his previous vessel puts his new crew in unneccessary danger. Written by Kevin Ackley

Video
ID                                       : 1
Format                                   : AVC
Format/Info                              : Advanced Video Codec
Format profile                           : [email protected]
Format settings, CABAC                   : Yes
Format settings, ReFrames                : 4 frames
Codec ID                                 : V_MPEG4/ISO/AVC
Duration                                 : 1 h 33 min
Bit rate                                 : 8 580 kb/s
Width                                    : 1 792 pixels
Height                                   : 1 080 pixels
Display aspect ratio                     : 5:3
Frame rate mode                          : Constant
Frame rate                               : 23.976 FPS
Color space                              : YUV
Chroma subsampling                       : 4:2:0
Bit depth                                : 8 bits
Scan type                                : Progressive
Bits/(Pixel*Frame)                       : 0.185
Stream size                              : 5.45 GiB (83%)
Writing library                          : x264 core 142 r2453 ea0ca51
Encoding settings                        : cabac=1 / ref=4 / deblock=1:0:0 / analyse=0x3:0x133 / me=umh / subme=7 / psy=1 / psy_rd=1.00:0.00 / mixed_ref=1 / me_range=16 / chroma_me=1 / trellis=1 / 8x8dct=1 / cqm=0 / deadzone=21,11 / fast_pskip=0 / chroma_qp_offset=-2 / threads=18 / lookahead_threads=3 / sliced_threads=0 / nr=0 / decimate=1 / interlaced=0 / bluray_compat=0 / constrained_intra=0 / bframes=3 / b_pyramid=2 / b_adapt=1 / b_bias=0 / direct=1 / weightb=1 / open_gop=0 / weightp=2 / keyint=250 / keyint_min=23 / scenecut=40 / intra_refresh=0 / rc_lookahead=40 / rc=2pass / mbtree=1 / bitrate=8580 / ratetol=1.0 / qcomp=0.60 / qpmin=0 / qpmax=69 / qpstep=4 / cplxblur=20.0 / qblur=0.5 / ip_ratio=1.40 / aq=1:1.00
Language                                 : English
Default                                  : Yes
Forced                                   : No

Audio
ID                                       : 2
Format                                   : DTS
Format/Info                              : Digital Theater Systems
Mode                                     : 16
Format settings, Endianness              : Big
Codec ID                                 : A_DTS
Duration                                 : 1 h 33 min
Bit rate mode                            : Constant
Bit rate                                 : 1 509 kb/s
Channel(s)                               : 2 channels
Channel positions                        : Front: L R
Sampling rate                            : 48.0 kHz
Frame rate                               : 93.750 FPS (512 spf)
Bit depth                                : 24 bits
Compression mode                         : Lossy
Stream size                              : 1 004 MiB (15%)
Language                                 : English
Default                                  : Yes
Forced                                   : No

Menu
00:00:00.000                             : en:00:00:00.000
00:10:17.951                             : en:00:10:17.951
00:21:18.944                             : en:00:21:18.944
00:29:22.594                             : en:00:29:22.594
00:39:27.699                             : en:00:39:27.699
00:47:15.666                             : en:00:47:15.666
01:03:43.361                             : en:01:03:43.361
01:15:06.585                             : en:01:15:06.585

Screenshots






Download

https://subyshare.com/0dxtcjfavyyt/Run.Silent.Run.Deep.1958.1080p.BluRay.part1.rar.html
https://subyshare.com/p6msjqa669nf/Run.Silent.Run.Deep.1958.1080p.BluRay.part2.rar.html
https://subyshare.com/1acpqfit6lmi/Run.Silent.Run.Deep.1958.1080p.BluRay.part3.rar.html
https://subyshare.com/n2wgv6a2dde4/Run.Silent.Run.Deep.1958.1080p.BluRay.part4.rar.html
https://subyshare.com/39ck0zoya1tb/Run.Silent.Run.Deep.1958.1080p.BluRay.part5.rar.html