Real 2017 1080p BluRay x264-WiKi

Title: Ri-eol
Year: 2017
Time: 137 min
Genre: Action / Action
Directed by: Sa-Rang Lee
Starring: Soo-hyun Kim / Dong-il Sung / Sung-min Lee / Sulli Choi / Woo-jin Jo
IMDB Rating: 5.7
IMDB URL: http://www.imdb.com/title/tt6904062/
Plot:
n/A

Video
ID                                       : 1
Format                                   : AVC
Format/Info                              : Advanced Video Codec
Format profile                           : [email protected]
Format settings                          : CABAC / 5 Ref Frames
Format settings, CABAC                   : Yes
Format settings, ReFrames                : 5 frames
Codec ID                                 : V_MPEG4/ISO/AVC
Duration                                 : 2 h 17 min
Bit rate                                 : 12.9 Mb/s
Width                                    : 1 920 pixels
Height                                   : 804 pixels
Display aspect ratio                     : 2.40:1
Frame rate mode                          : Constant
Frame rate                               : 24.000 FPS
Color space                              : YUV
Chroma subsampling                       : 4:2:0
Bit depth                                : 8 bits
Scan type                                : Progressive
Bits/(Pixel*Frame)                       : 0.347
Stream size                              : 12.4 GiB (95%)
Writing library                          : x264 core 129 r2245 bc13772
Encoding settings                        : cabac=1 / ref=5 / deblock=1:-3:-3 / analyse=0x3:0x133 / me=umh / subme=11 / psy=1 / psy_rd=1.05:0.10 / mixed_ref=1 / me_range=64 / chroma_me=1 / trellis=2 / 8x8dct=1 / cqm=0 / deadzone=21,11 / fast_pskip=0 / chroma_qp_offset=-3 / threads=12 / lookahead_threads=2 / sliced_threads=0 / nr=0 / decimate=1 / interlaced=0 / bluray_compat=0 / constrained_intra=0 / bframes=8 / b_pyramid=2 / b_adapt=2 / b_bias=0 / direct=3 / weightb=1 / open_gop=0 / weightp=2 / keyint=250 / keyint_min=24 / scenecut=40 / intra_refresh=0 / rc_lookahead=60 / rc=2pass / mbtree=1 / bitrate=12864 / ratetol=1.0 / qcomp=0.60 / qpmin=0 / qpmax=69 / qpstep=4 / cplxblur=20.0 / qblur=0.5 / vbv_maxrate=40000 / vbv_bufsize=30000 / nal_hrd=none / ip_ratio=1.40 / aq=1:0.85
Language                                 : English
Default                                  : Yes
Forced                                   : No

Audio
ID                                       : 2
Format                                   : AC-3
Format/Info                              : Audio Coding 3
Codec ID                                 : A_AC3
Duration                                 : 2 h 17 min
Bit rate mode                            : Constant
Bit rate                                 : 640 kb/s
Channel(s)                               : 6 channels
Channel positions                        : Front: L C R, Side: L R, LFE
Sampling rate                            : 48.0 kHz
Frame rate                               : 31.250 FPS (1536 SPF)
Bit depth                                : 16 bits
Compression mode                         : Lossy
Stream size                              : 631 MiB (5%)
Language                                 : Korean
Service kind                             : Complete Main
Default                                  : Yes
Forced                                   : No

Text
ID                                       : 3
Format                                   : UTF-8
Codec ID                                 : S_TEXT/UTF8
Codec ID/Info                            : UTF-8 Plain Text
Duration                                 : 2 h 16 min
Bit rate                                 : 19 b/s
Count of elements                        : 801
Stream size                              : 19.6 KiB (0%)
Language                                 : Chinese
Default                                  : Yes
Forced                                   : No

Download:

https://subyshare.com/1qbemfprjrov/Real.2017.1080p.BluRay.part01.rar.html
https://subyshare.com/q94pqdzgjc7s/Real.2017.1080p.BluRay.part02.rar.html
https://subyshare.com/wr6ap9zcxdpw/Real.2017.1080p.BluRay.part03.rar.html
https://subyshare.com/fuprhuiubu02/Real.2017.1080p.BluRay.part04.rar.html
https://subyshare.com/42hze5ca02co/Real.2017.1080p.BluRay.part05.rar.html
https://subyshare.com/25aiwr649ern/Real.2017.1080p.BluRay.part06.rar.html
https://subyshare.com/atve45ej0yie/Real.2017.1080p.BluRay.part07.rar.html
https://subyshare.com/gpgootisfoil/Real.2017.1080p.BluRay.part08.rar.html
https://subyshare.com/cirpely7t38n/Real.2017.1080p.BluRay.part09.rar.html
https://subyshare.com/69m5380kludf/Real.2017.1080p.BluRay.part10.rar.html

Leave a Reply

Your email address will not be published. Required fields are marked *