November 2017 ESTONIAN 1080p AMZN WEBRip DDP2.0 x264-NTG

Title: November
Year: 2017
Time: 115 min
Genre: Drama / Fantasy / Romance
Directed by: Rainer Sarnet
Starring: Rea Lest / Jorgen Liik / Arvo Kukumagi / Katariina Unt / Taavi Eelmaa
IMDB Rating: 7.2
IMDB URL: http://www.imdb.com/title/tt6164502/
Plot:
“November” is based on Estonian novel “Rehepapp” by Andrus Kivirahk, a bestseller of the last twenty years. The film is a mixture of magic, black humor and romantic love. The story is set in a pagan Estonian village where werewolves, the plague, and spirits roam. The villagers’ main problem is how to survive the cold, dark winter. And, to that aim, nothing is taboo. People steal from each other, from their German manor lords, and from spirits, the devil, and Christ. To guard their souls, they’ll give them away to thieving creatures made of wood and metal called kratts, who help their masters by stealing more. They steal even if their barns are already overflowing. Stealing is an obsession that makes the villagers more and more like the soulless creatures they command, the kratts. The main character of the film is a young farm girl named Liina who is hopelessly and forlornly in love with a village boy named Hans. Her longing makes the girl become a werewolf and jump into an ice-cold pond. She’s ready to die in the name of love. The pragmatic farmers are faced with a question: is the life that they’ve won through so much toil worth anything, if it lacks a soul? Estonian pagan and European Christian mythologies come together in this film. Both mythologies look for a miracle; for an ancient force that gives one a soul. This film is about souls – longing for a soul, selling your soul, and living without a soul.

Video
ID                                       : 1
Format                                   : AVC
Format/Info                              : Advanced Video Codec
Format profile                           : [email protected]
Format settings                          : CABAC / 4 Ref Frames
Format settings, CABAC                   : Yes
Format settings, ReFrames                : 4 frames
Codec ID                                 : V_MPEG4/ISO/AVC
Duration                                 : 1 h 55 min
Bit rate mode                            : Variable
Bit rate                                 : 9 022 kb/s
Maximum bit rate                         : 15.0 Mb/s
Width                                    : 1 920 pixels
Height                                   : 1 080 pixels
Display aspect ratio                     : 16:9
Frame rate mode                          : Constant
Frame rate                               : 24.000 FPS
Color space                              : YUV
Chroma subsampling                       : 4:2:0
Bit depth                                : 8 bits
Scan type                                : Progressive
Bits/(Pixel*Frame)                       : 0.181
Stream size                              : 7.28 GiB (98%)
Default                                  : Yes
Forced                                   : No
Color range                              : Limited
Color primaries                          : BT.709
Transfer characteristics                 : BT.709
Matrix coefficients                      : BT.709

Audio
ID                                       : 2
Format                                   : E-AC-3
Format/Info                              : Enhanced Audio Coding 3
Codec ID                                 : A_EAC3
Duration                                 : 1 h 55 min
Bit rate mode                            : Constant
Bit rate                                 : 224 kb/s
Channel(s)                               : 2 channels
Channel positions                        : Front: L R
Sampling rate                            : 48.0 kHz
Frame rate                               : 187.500 FPS (256 SPF)
Compression mode                         : Lossy
Stream size                              : 185 MiB (2%)
Language                                 : Estonian
Service kind                             : Complete Main
Default                                  : Yes
Forced                                   : No

Text
ID                                       : 3
Format                                   : UTF-8
Codec ID                                 : S_TEXT/UTF8
Codec ID/Info                            : UTF-8 Plain Text
Duration                                 : 1 h 50 min
Bit rate                                 : 18 b/s
Count of elements                        : 436
Stream size                              : 14.7 KiB (0%)
Title                                    : SDH
Language                                 : English
Default                                  : No
Forced                                   : No



Screenshots



Download

https://subyshare.com/zwus0wy0eqwl/November.2017.1080p.AMZN.WEBRip.DDP2.0.part1.rar.html
https://subyshare.com/tp1tpe1uubj0/November.2017.1080p.AMZN.WEBRip.DDP2.0.part2.rar.html
https://subyshare.com/hq5weu5adyci/November.2017.1080p.AMZN.WEBRip.DDP2.0.part3.rar.html
https://subyshare.com/v1945rwovrwk/November.2017.1080p.AMZN.WEBRip.DDP2.0.part4.rar.html
https://subyshare.com/d8rgemndxvyj/November.2017.1080p.AMZN.WEBRip.DDP2.0.part5.rar.html
https://subyshare.com/06zlo7kbx2v5/November.2017.1080p.AMZN.WEBRip.DDP2.0.part6.rar.html