Nobody Famous 2018 1080p WEB-DL DD5.1 H264-FGT

Title: Nobody Famous
Year: 2018
Time: 90 min
Genre: Comedy / Drama
Directed by: Sarah Rotella
Starring: Winny Clarke / Justin Gerhard / Evan Giovanni / Gráinne O’Flynn / Justine Nelson
IMDB Rating: 4.7
IMDB URL: http://www.imdb.com/title/tt6982562/
Plot:
A group of aspiring actors’ cottage weekend takes a turn for the worst when one of them finds out they’ve booked a blockbuster role, and the rest of the group’s jealously takes hold where there’s no one else around.

Video
ID                                       : 1
Format                                   : AVC
Format/Info                              : Advanced Video Codec
Format profile                           : [email protected]
Format settings                          : CABAC / 5 Ref Frames
Format settings, CABAC                   : Yes
Format settings, ReFrames                : 5 frames
Codec ID                                 : V_MPEG4/ISO/AVC
Duration                                 : 1 h 29 min
Bit rate                                 : 4 535 kb/s
Width                                    : 1 904 pixels
Height                                   : 800 pixels
Display aspect ratio                     : 2.40:1
Frame rate mode                          : Constant
Frame rate                               : 23.976 (24000/1001) FPS
Color space                              : YUV
Chroma subsampling                       : 4:2:0
Bit depth                                : 8 bits
Scan type                                : Progressive
Bits/(Pixel*Frame)                       : 0.124
Stream size                              : 2.82 GiB (92%)
Title                                    : Nobody.Famous.2018.1080p.WEB-DL.DD5.1.H264-FGT
Language                                 : English
Default                                  : Yes
Forced                                   : No
Color range                              : Limited
Color primaries                          : BT.709
Transfer characteristics                 : BT.709
Matrix coefficients                      : BT.709

Audio
ID                                       : 2
Format                                   : AC-3
Format/Info                              : Audio Coding 3
Codec ID                                 : A_AC3
Duration                                 : 1 h 29 min
Bit rate mode                            : Constant
Bit rate                                 : 384 kb/s
Channel(s)                               : 6 channels
Channel positions                        : Front: L C R, Side: L R, LFE
Sampling rate                            : 48.0 kHz
Frame rate                               : 31.250 FPS (1536 SPF)
Bit depth                                : 16 bits
Compression mode                         : Lossy
Stream size                              : 245 MiB (8%)
Title                                    : Nobody.Famous.2018.1080p.WEB-DL.DD5.1.H264-FGT
Language                                 : English
Service kind                             : Complete Main
Default                                  : Yes
Forced                                   : No

Text
ID                                       : 3
Format                                   : UTF-8
Codec ID                                 : S_TEXT/UTF8
Codec ID/Info                            : UTF-8 Plain Text
Duration                                 : 1 h 22 min
Bit rate                                 : 77 b/s
Count of elements                        : 1524
Stream size                              : 47.1 KiB (0%)
Language                                 : English
Default                                  : Yes
Forced                                   : No

Menu
00:00:00.000                             : en:Cottage Weekend!
00:03:38.218                             : en:Unpack and Unwind
00:09:24.564                             : en:The Smoothie\'s Smooth
00:12:54.774                             : en:Gossip and Tanning
00:17:44.063                             : en:Legends of the Spring
00:21:53.312                             : en:War and American Psychos
00:29:47.786                             : en:She Got the Role!
00:36:57.215                             : en:She Doesn\'t Deserve It
00:43:42.620                             : en:Alone Time
00:51:03.060                             : en:The Break Up
00:57:33.450                             : en:The Drowning
01:03:16.793                             : en:Where\'s Grace?
01:10:46.242                             : enani\'s Best Friend
01:14:35.471                             : en:That Sucks for Dani
01:19:36.772                             : en:This Is Our Moment
01:26:54.209                             : en:End Credits

Screenshots



 

Download

https://subyshare.com/z8ycatj49p4u/Nobody.Famous.2018.1080p.WEB-DL.DD5.1.part1.rar.html
https://subyshare.com/sf45aika0v7g/Nobody.Famous.2018.1080p.WEB-DL.DD5.1.part2.rar.html
https://subyshare.com/g1xbz4ms9bck/Nobody.Famous.2018.1080p.WEB-DL.DD5.1.part3.rar.html