No Greater Love 2015 1080p HULU WEBRip AAC2.0 x264-QOQ

Title: No Greater Love
Year: 2015
Time: 94 min
Genre: Documentary
Directed by: Justin Roberts
Starring: Gene Delgado
IMDB Rating: 6.8
IMDB URL: http://www.imdb.com/title/tt4687782/
Plot:
No Greater Love explores a combat deployment through the eyes of an Army chaplain, as he and his men fight their way through a hellish tour in one of the most dangerous places in Afghanistan and then as they struggle to reintegrate home.

Video
ID                                       : 1
Format                                   : AVC
Format/Info                              : Advanced Video Codec
Format profile                           : [email protected]
Format settings                          : CABAC / 4 Ref Frames
Format settings, CABAC                   : Yes
Format settings, ReFrames                : 4 frames
Codec ID                                 : V_MPEG4/ISO/AVC
Duration                                 : 1 h 37 min
Bit rate                                 : 5 099 kb/s
Width                                    : 1 920 pixels
Height                                   : 1 080 pixels
Display aspect ratio                     : 16:9
Frame rate mode                          : Constant
Frame rate                               : 23.976 (24000/1001) FPS
Color space                              : YUV
Chroma subsampling                       : 4:2:0
Bit depth                                : 8 bits
Scan type                                : Progressive
Bits/(Pixel*Frame)                       : 0.103
Stream size                              : 3.46 GiB (99%)
Default                                  : Yes
Forced                                   : No

Audio
ID                                       : 2
Format                                   : AAC
Format/Info                              : Advanced Audio Codec
Format profile                           : HE-AAC / LC
Format settings                          : Explicit
Codec ID                                 : A_AAC-2
Duration                                 : 1 h 37 min
Bit rate                                 : 64.0 kb/s
Channel(s)                               : 2 channels
Channel positions                        : Front: L R
Sampling rate                            : 48.0 kHz / 24.0 kHz
Frame rate                               : 23.438 FPS (1024 SPF)
Compression mode                         : Lossy
Stream size                              : 44.5 MiB (1%)
Default                                  : Yes
Forced                                   : No

Text
ID                                       : 3
Format                                   : UTF-8
Codec ID                                 : S_TEXT/UTF8
Codec ID/Info                            : UTF-8 Plain Text
Duration                                 : 1 h 37 min
Bit rate                                 : 115 b/s
Count of elements                        : 2203
Stream size                              : 82.4 KiB (0%)
Language                                 : English
Default                                  : No
Forced                                   : No

Menu
00:00:00.000                             : en:Chapter 1
00:13:14.000                             : en:Chapter 2
00:31:12.708                             : en:Chapter 3
00:46:24.000                             : en:Chapter 4
01:01:12.625                             : en:Chapter 5
01:19:02.666                             : en:Chapter 6

Screenshots



Download

https://subyshare.com/0667srb2xakh/No.Greater.Love.2017.1080p.HULU.WEBRip.AAC2.0.part1.rar.html
https://subyshare.com/ni8bpoujhog3/No.Greater.Love.2017.1080p.HULU.WEBRip.AAC2.0.part2.rar.html
https://subyshare.com/sh7ts6tfxpie/No.Greater.Love.2017.1080p.HULU.WEBRip.AAC2.0.part3.rar.html