Nightworld 2017 1080p WEB-DL DD5.1 H264-FGT

Title: Nightworld
Year: 2017
Time: 92 min
Genre: Horror / Thriller
Directed by: Patricio Valladares
Starring: Jason London / Robert Englund / Gianni Capaldi / Lorina Kamburova / Diana Lyubenova
IMDB Rating: 4.4
IMDB URL: http://www.imdb.com/title/tt5157052/
Plot:
When former LAPD officer Brett Anderson takes a job as head of security at an old apartment building in Bulgaria’s capital, Sofia, he soon begins to experience a series of bizarre and terrifying events. Once he begins to delve deeper into the building’s sinister history and investigate its shadowy owners and past employees, Brett soon uncovers a malevolent force nestled deep in the bowels of the building that will do anything to be set free into our world.

Video
ID                                       : 1
Format                                   : AVC
Format/Info                              : Advanced Video Codec
Format profile                           : [email protected]
Format settings, CABAC                   : Yes
Format settings, ReFrames                : 5 frames
Codec ID                                 : V_MPEG4/ISO/AVC
Duration                                 : 1 h 31 min
Bit rate                                 : 4 475 kb/s
Width                                    : 1 912 pixels
Height                                   : 796 pixels
Display aspect ratio                     : 2.40:1
Frame rate mode                          : Constant
Frame rate                               : 25.000 FPS
Color space                              : YUV
Chroma subsampling                       : 4:2:0
Bit depth                                : 8 bits
Scan type                                : Progressive
Bits/(Pixel*Frame)                       : 0.118
Stream size                              : 2.85 GiB (90%)
Title                                    : Nightworld.2017.1080p.WEB-DL.DD5.1.H264-FGT
Language                                 : English
Default                                  : Yes
Forced                                   : No
Color range                              : Limited
Color primaries                          : BT.709
Transfer characteristics                 : BT.709
Matrix coefficients                      : BT.709

Audio
ID                                       : 2
Format                                   : AC-3
Format/Info                              : Audio Coding 3
Format settings, Endianness              : Big
Codec ID                                 : A_AC3
Duration                                 : 1 h 31 min
Bit rate mode                            : Constant
Bit rate                                 : 384 kb/s
Channel(s)                               : 6 channels
Channel positions                        : Front: L C R, Side: L R, LFE
Sampling rate                            : 48.0 kHz
Frame rate                               : 31.250 FPS (1536 spf)
Bit depth                                : 16 bits
Compression mode                         : Lossy
Delay relative to video                  : -40 ms
Stream size                              : 251 MiB (8%)
Title                                    : Nightworld.2017.1080p.WEB-DL.DD5.1.H264-FGT
Language                                 : English
Service kind                             : Complete Main
Default                                  : Yes
Forced                                   : No

Text
ID                                       : 3
Format                                   : UTF-8
Codec ID                                 : S_TEXT/UTF8
Codec ID/Info                            : UTF-8 Plain Text
Language                                 : English
Default                                  : Yes
Forced                                   : No

Menu
00:00:00.000                             : en:Chapter 1
00:07:33.000                             : en:Chapter 2
00:15:08.000                             : en:Chapter 3
00:22:54.000                             : en:Chapter 4
00:31:33.000                             : en:Chapter 5
00:40:58.000                             : en:Chapter 6
00:48:25.000                             : en:Chapter 7
00:57:30.000                             : en:Chapter 8
01:06:25.000                             : en:Chapter 9
01:14:06.000                             : en:Chapter 10
01:21:43.000                             : en:Chapter 11
01:29:39.000                             : en:Chapter 12

Screenshots






Download

https://subyshare.com/760q2tl5lhnj/Nightworld.2017.1080p.WEB-DL.DD5.1.part1.rar.html
https://subyshare.com/s4hne6jwqve5/Nightworld.2017.1080p.WEB-DL.DD5.1.part2.rar.html
https://subyshare.com/x1raa1q3irag/Nightworld.2017.1080p.WEB-DL.DD5.1.part3.rar.html