Narcos S03 1080p NF WEB-DL DD5.1 x264-NTb

Title: “Narcos”
Year: 2015
Time: 49 min
Genre: Biography / Crime / Drama / Thriller
Directed by: n/A
Starring: Pedro Pascal / Wagner Moura / Boyd Holbrook / Paulina Gaitan / Juan Murcia
IMDB Rating: 8.9
IMDB URL: http://www.imdb.com/title/tt2707408/
Plot:
A chronicled look at the criminal exploits of Colombian drug lord Pablo Escobar, as well as the many other drug kingpins who plagued the country through the years.

General
Format                                   : Matroska
Format version                           : Version 4 / Version 2
File size                                : 2.18 GiB
Duration                                 : 54mn 35s
Overall bit rate mode                    : Variable
Overall bit rate                         : 5 708 Kbps
Encoded date                             : UTC 2017-09-01 07:23:43
Writing application                      : mkvmerge v7.3.0 ('Nouages') 64bit built on Oct 23 2014 13:14:01
Writing library                          : libebml v1.3.0 + libmatroska v1.4.1
DURATION                                 : 00:53:20.155000000
NUMBER_OF_FRAMES                         : 641
NUMBER_OF_BYTES                          : 21805
_STATISTICS_WRITING_APP                  : mkvmerge v7.3.0 ('Nouages') 64bit built on Oct 23 2014 13:14:01
_STATISTICS_WRITING_DATE_UTC             : 2017-09-01 07:23:43
_STATISTICS_TAGS                         : BPS DURATION NUMBER_OF_FRAMES NUMBER_OF_BYTES

Video
ID                                       : 1
Format                                   : AVC
Format/Info                              : Advanced Video Codec
Format profile                           : [email protected]
Format settings, CABAC                   : Yes
Format settings, ReFrames                : 3 frames
Codec ID                                 : V_MPEG4/ISO/AVC
Duration                                 : 54mn 35s
Bit rate mode                            : Variable
Bit rate                                 : 5 360 Kbps
Maximum bit rate                         : 8 040 Kbps
Width                                    : 1 920 pixels
Height                                   : 1 080 pixels
Display aspect ratio                     : 16:9
Frame rate mode                          : Constant
Frame rate                               : 23.976 fps
Color space                              : YUV
Chroma subsampling                       : 4:2:0
Bit depth                                : 8 bits
Scan type                                : Progressive
Bits/(Pixel*Frame)                       : 0.108
Stream size                              : 1.99 GiB (91%)
Writing library                          : x264 core 118
Encoding settings                        : cabac=1 / ref=3 / deblock=1:0:0 / analyse=0x1:0x111 / me=umh / subme=10 / psy=1 / psy_rd=1.00:0.00 / mixed_ref=1 / me_range=24 / chroma_me=1 / trellis=2 / 8x8dct=0 / cqm=0 / deadzone=21,11 / fast_pskip=1 / chroma_qp_offset=-2 / threads=6 / sliced_threads=0 / nr=0 / decimate=1 / interlaced=0 / bluray_compat=0 / constrained_intra=0 / bframes=2 / b_pyramid=0 / b_adapt=2 / b_bias=0 / direct=3 / weightb=1 / open_gop=0 / weightp=2 / keyint=48 / keyint_min=25 / scenecut=0 / intra_refresh=0 / rc_lookahead=0 / rc=2pass / mbtree=1 / bitrate=5360 / ratetol=1.0 / qcomp=0.50 / qpmin=6 / qpmax=51 / qpstep=4 / cplxblur=20.0 / qblur=0.5 / vbv_maxrate=8040 / vbv_bufsize=10720 / nal_hrd=vbr / ip_ratio=1.40 / aq=1:1.00
Default                                  : Yes
Forced                                   : No

Audio
ID                                       : 2
Format                                   : AC-3
Format/Info                              : Audio Coding 3
Mode extension                           : CM (complete main)
Format settings, Endianness              : Big
Codec ID                                 : A_AC3
Duration                                 : 54mn 35s
Bit rate mode                            : Constant
Bit rate                                 : 384 Kbps
Channel(s)                               : 6 channels
Channel positions                        : Front: L C R, Side: L R, LFE
Sampling rate                            : 48.0 KHz
Bit depth                                : 16 bits
Compression mode                         : Lossy
Stream size                              : 150 MiB (7%)
Language                                 : English
Default                                  : Yes
Forced                                   : No

Text #1
ID                                       : 3
Format                                   : UTF-8
Codec ID                                 : S_TEXT/UTF8
Codec ID/Info                            : UTF-8 Plain Text
Title                                    : Forced
Language                                 : English
Default                                  : Yes
Forced                                   : Yes

Text #2
ID                                       : 4
Format                                   : UTF-8
Codec ID                                 : S_TEXT/UTF8
Codec ID/Info                            : UTF-8 Plain Text
Title                                    : SDH
Language                                 : English
Default                                  : No
Forced                                   : No

Text #3
ID                                       : 5
Format                                   : UTF-8
Codec ID                                 : S_TEXT/UTF8
Codec ID/Info                            : UTF-8 Plain Text
Language                                 : Arabic
Default                                  : No
Forced                                   : No

Text #4
ID                                       : 6
Format                                   : UTF-8
Codec ID                                 : S_TEXT/UTF8
Codec ID/Info                            : UTF-8 Plain Text
Language                                 : French
Default                                  : No
Forced                                   : No

Text #5
ID                                       : 7
Format                                   : UTF-8
Codec ID                                 : S_TEXT/UTF8
Codec ID/Info                            : UTF-8 Plain Text
Language                                 : Polish
Default                                  : No
Forced                                   : No

Text #6
ID                                       : 8
Format                                   : UTF-8
Codec ID                                 : S_TEXT/UTF8
Codec ID/Info                            : UTF-8 Plain Text
Title                                    : Traditional
Language                                 : Chinese
Default                                  : No
Forced                                   : No


http://imdb.com/title/tt2707408/

Download:

https://subyshare.com/yhp9rcqcgmnt/Narcos.S03E01.The.Kingpin.Strategy.1080p.NF.WEB-DL.DD5.1.x264-NTb.mkv.html
https://subyshare.com/iya1d386k5f6/Narcos.S03E02.The.Cali.KGB.1080p.NF.WEB-DL.DD5.1.x264-NTb.mkv.html
https://subyshare.com/3o2430iy3v2v/Narcos.S03E03.Follow.the.Money.1080p.NF.WEB-DL.DD5.1.x264-NTb.mkv.html
https://subyshare.com/bm7ev69kf2zw/Narcos.S03E04.Checkmate.1080p.NF.WEB-DL.DD5.1.x264-NTb.mkv.html
https://subyshare.com/pd59rbm2dn6c/Narcos.S03E05.MRO.1080p.NF.WEB-DL.DD5.1.x264-NTb.mkv.html
https://subyshare.com/gt43iso9y1lv/Narcos.S03E06.Best.Laid.Plans.1080p.NF.WEB-DL.DD5.1.x264-NTb.mkv.html
https://subyshare.com/7j2b3kmolxoc/Narcos.S03E07.Sin.Salida.1080p.NF.WEB-DL.DD5.1.x264-NTb.mkv.html
https://subyshare.com/kmisxmqcqavg/Narcos.S03E08.Convivir.1080p.NF.WEB-DL.DD5.1.x264-NTb.mkv.html
https://subyshare.com/r2dejjdgdl22/Narcos.S03E09.Todos.Los.Hombres.del.Presidente.1080p.NF.WEB-DL.DD5.1.x264-NTb.mkv.html
https://subyshare.com/v8jaqd8ajc5a/Narcos.S03E10.Going.Back.to.Cali.1080p.NF.WEB-DL.DD5.1.x264-NTb.mkv.html

Leave a Reply

Your email address will not be published. Required fields are marked *