Monsters At Large 2018 1080p WEB-DL DD5.1 H264-FGT

Title: Monsters at Large
Year: 2018
Time: 91 min
Genre: Family / Family
Directed by: Jason Murphy
Starring: Mischa Barton / Stephen Tobolowsky / Austin St. John / Matthew Kosto / Auggie Pulliam
IMDB Rating: 7.7
IMDB URL: http://www.imdb.com/title/tt5145662/
Plot:
Alex decides to end his kid brother’s nightmares by forming a task force to take care of imaginary monsters. When their business becomes a hit, nothing can go wrong…until one of the monsters turns out to be real, and really big.

Video
ID                                       : 1
Format                                   : AVC
Format/Info                              : Advanced Video Codec
Format profile                           : [email protected]
Format settings                          : CABAC / 4 Ref Frames
Format settings, CABAC                   : Yes
Format settings, ReFrames                : 4 frames
Codec ID                                 : V_MPEG4/ISO/AVC
Duration                                 : 1 h 31 min
Bit rate                                 : 5 203 kb/s
Width                                    : 1 912 pixels
Height                                   : 1 072 pixels
Display aspect ratio                     : 16:9
Frame rate mode                          : Constant
Frame rate                               : 23.976 (24000/1001) FPS
Color space                              : YUV
Chroma subsampling                       : 4:2:0
Bit depth                                : 8 bits
Scan type                                : Progressive
Bits/(Pixel*Frame)                       : 0.106
Stream size                              : 3.32 GiB (93%)
Title                                    : Monsters.At.Large.2018.1080p.WEB-DL.DD5.1.H264-FGT
Language                                 : English
Default                                  : Yes
Forced                                   : No
Color range                              : Limited
Color primaries                          : BT.709
Transfer characteristics                 : BT.709
Matrix coefficients                      : BT.709

Audio
ID                                       : 2
Format                                   : AC-3
Format/Info                              : Audio Coding 3
Codec ID                                 : A_AC3
Duration                                 : 1 h 31 min
Bit rate mode                            : Constant
Bit rate                                 : 384 kb/s
Channel(s)                               : 6 channels
Channel positions                        : Front: L C R, Side: L R, LFE
Sampling rate                            : 48.0 kHz
Frame rate                               : 31.250 FPS (1536 SPF)
Bit depth                                : 16 bits
Compression mode                         : Lossy
Delay relative to video                  : -42 ms
Stream size                              : 251 MiB (7%)
Title                                    : Monsters.At.Large.2018.1080p.WEB-DL.DD5.1.H264-FGT
Language                                 : English
Service kind                             : Complete Main
Default                                  : Yes
Forced                                   : No

Text
ID                                       : 3
Format                                   : UTF-8
Codec ID                                 : S_TEXT/UTF8
Codec ID/Info                            : UTF-8 Plain Text
Duration                                 : 1 h 28 min
Bit rate                                 : 66 b/s
Count of elements                        : 1449
Stream size                              : 43.5 KiB (0%)
Language                                 : English
Default                                  : Yes
Forced                                   : No

Menu
00:00:00.000                             : en:1
00:05:43.000                             : en:2
00:14:29.000                             : en:3
00:22:41.000                             : en:4
00:30:22.000                             : en:5
00:38:20.000                             : en:6
00:46:34.000                             : en:7
00:54:41.000                             : en:8
01:03:47.000                             : en:9
01:11:06.000                             : en:10
01:22:40.000                             : en:11
01:29:27.000                             : en:12

Screenshots



Download

https://subyshare.com/0hj5razmm7un/Monsters.At.Large.2018.1080p.WEB-DL.DD5.1.part1.rar.html
https://subyshare.com/v41wwwp8kexj/Monsters.At.Large.2018.1080p.WEB-DL.DD5.1.part2.rar.html
https://subyshare.com/ra8o9bparne8/Monsters.At.Large.2018.1080p.WEB-DL.DD5.1.part3.rar.html