Modern Life Is Rubbish 2017 1080p WEB-DL DD5.1 H264-FGT

Title: Modern Life Is Rubbish
Year: 2017
Time: 105 min
Genre: Comedy / Music / Romance
Directed by: Daniel Jerome Gill / Daniel Jerome Gill
Starring: Ian Hart / Daisy Bevan / Jessie Cave / Tom Riley / Freya Mavor
IMDB Rating: 5.7
IMDB URL: http://www.imdb.com/title/tt2385752/
Plot:
Brought together by their shared love of music, ten years on Liam and Natalie are at breaking point. In their case opposites attract but don’t necessarily work long-term. Making the difficult decision to separate, they must split their prized music library. But the sound track that defined their relationship keeps pulling them back together. Written by Serotonin Films

Video
ID                                       : 1
Format                                   : AVC
Format/Info                              : Advanced Video Codec
Format profile                           : [email protected]
Format settings                          : CABAC / 4 Ref Frames
Format settings, CABAC                   : Yes
Format settings, ReFrames                : 4 frames
Codec ID                                 : V_MPEG4/ISO/AVC
Duration                                 : 1 h 43 min
Bit rate                                 : 5 231 kb/s
Width                                    : 1 914 pixels
Height                                   : 1 032 pixels
Display aspect ratio                     : 1.85:1
Frame rate mode                          : Constant
Frame rate                               : 23.976 (23976/1000) FPS
Color space                              : YUV
Chroma subsampling                       : 4:2:0
Bit depth                                : 8 bits
Scan type                                : Progressive
Bits/(Pixel*Frame)                       : 0.110
Stream size                              : 3.80 GiB (93%)
Title                                    : Modern.Life.Is.Rubbish.2017.1080p.WEB-DL.DD5.1.H264-FGT
Language                                 : English
Default                                  : Yes
Forced                                   : No
Color range                              : Limited
Color primaries                          : BT.709
Transfer characteristics                 : BT.709
Matrix coefficients                      : BT.709

Audio
ID                                       : 2
Format                                   : AC-3
Format/Info                              : Audio Coding 3
Codec ID                                 : A_AC3
Duration                                 : 1 h 43 min
Bit rate mode                            : Constant
Bit rate                                 : 384 kb/s
Channel(s)                               : 6 channels
Channel positions                        : Front: L C R, Side: L R, LFE
Sampling rate                            : 48.0 kHz
Frame rate                               : 31.250 FPS (1536 SPF)
Bit depth                                : 16 bits
Compression mode                         : Lossy
Delay relative to video                  : -43 ms
Stream size                              : 285 MiB (7%)
Title                                    : Modern.Life.Is.Rubbish.2017.1080p.WEB-DL.DD5.1.H264-FGT
Language                                 : English
Service kind                             : Complete Main
Default                                  : Yes
Forced                                   : No

Menu
00:00:00.000                             : en:1
00:06:55.665                             : en:2
00:16:34.243                             : en:3
00:24:00.314                             : en:4
00:31:18.752                             : en:5
00:41:14.347                             : en:6
00:48:21.691                             : en:7
00:57:32.241                             : en:8
01:06:19.977                             : en:9
01:14:46.984                             : en:10
01:23:37.264                             : en:11
01:30:32.554                             : en:12
01:39:25.086                             : en:13

Screenshots



Download

https://subyshare.com/honein06qted/Modern.Life.Is.Rubbish.2017.1080p.WEB-DL.DD5.1.part1.rar.html
https://subyshare.com/mecyti0eh9tv/Modern.Life.Is.Rubbish.2017.1080p.WEB-DL.DD5.1.part2.rar.html
https://subyshare.com/q4be80natyjt/Modern.Life.Is.Rubbish.2017.1080p.WEB-DL.DD5.1.part3.rar.html