Miss Stevens 2016 1080p WEB-DL DD5.1 H264-FGT

Title: Miss Stevens
Year: 2016
Time: 86 min
Genre: Comedy / Drama
Directed by: Julia Hart
Starring: Lily Rabe / Timothee Chalamet / Lili Reinhart / Anthony Quintal / Oscar Nu帽ez
IMDB Rating: 6.5
IMDB URL: http://www.imdb.com/title/tt2693580/
Plot:
When Miss Stevens chaperones three of her students – Billy, Margot and Sam – on a weekend trip to a drama competition, she discovers that coming of age stories aren’t just for teenagers. Exploring the fine line between being a grown up and being a kid, MISS STEVENS looks at the moment you realize maybe you’re the responsible adult in the room, and what comes after you find out you’re not who you thought you’d be. Written by Anonymous

Video
ID                                       : 1
Format                                   : AVC
Format/Info                              : Advanced Video Codec
Format profile                           : [email protected]
Format settings                          : CABAC / 4 Ref Frames
Format settings, CABAC                   : Yes
Format settings, ReFrames                : 4 frames
Codec ID                                 : V_MPEG4/ISO/AVC
Duration                                 : 1 h 26 min
Bit rate                                 : 5 147 kb/s
Width                                    : 1 920 pixels
Height                                   : 1 080 pixels
Display aspect ratio                     : 16:9
Frame rate mode                          : Constant
Frame rate                               : 23.976 (23976/1000) FPS
Color space                              : YUV
Chroma subsampling                       : 4:2:0
Bit depth                                : 8 bits
Scan type                                : Progressive
Bits/(Pixel*Frame)                       : 0.104
Stream size                              : 3.09 GiB (93%)
Title                                    : Miss.Stevens.2016.1080p.WEB-DL.DD5.1.H.264-FGT
Language                                 : English
Default                                  : Yes
Forced                                   : No
Color range                              : Limited
Color primaries                          : BT.709
Transfer characteristics                 : BT.709
Matrix coefficients                      : BT.709

Audio
ID                                       : 2
Format                                   : AC-3
Format/Info                              : Audio Coding 3
Codec ID                                 : A_AC3
Duration                                 : 1 h 26 min
Bit rate mode                            : Constant
Bit rate                                 : 384 kb/s
Channel(s)                               : 6 channels
Channel positions                        : Front: L C R, Side: L R, LFE
Sampling rate                            : 48.0 kHz
Frame rate                               : 31.250 FPS (1536 SPF)
Bit depth                                : 16 bits
Compression mode                         : Lossy
Stream size                              : 236 MiB (7%)
Title                                    : Miss.Stevens.2016.1080p.WEB-DL.DD5.1.H.264-FGT
Language                                 : English
Service kind                             : Complete Main
Default                                  : Yes
Forced                                   : No

Text
ID                                       : 3
Format                                   : UTF-8
Codec ID                                 : S_TEXT/UTF8
Codec ID/Info                            : UTF-8 Plain Text
Duration                                 : 1 h 25 min
Bit rate                                 : 54 b/s
Count of elements                        : 1267
Stream size                              : 33.8 KiB (0%)
Language                                 : English
Default                                  : No
Forced                                   : No

Menu
00:00:00.000                             : en:Chapter One
00:15:00.000                             : en:Chapter Two
00:30:00.000                             : en:Chapter Three
00:45:00.000                             : en:Chapter Four
01:00:00.000                             : en:Chapter Five
01:15:00.000                             : en:Chapter Six

Screenshots



Download

https://subyshare.com/a4l7f39nlnos/Miss.Stevens.2016.1080p.WEB-DL.DD5.1.H.part1.rar.html
https://subyshare.com/btjp9zk8gsch/Miss.Stevens.2016.1080p.WEB-DL.DD5.1.H.part2.rar.html
https://subyshare.com/06nwdwksaz3x/Miss.Stevens.2016.1080p.WEB-DL.DD5.1.H.part3.rar.html