Mind and Machine 2017 1080p WEB-DL DD5.1 H264-FGT

Title: Mind and Machine
Year: 2017
Time: 70 min
Genre: Crime / Sci-Fi / Thriller
Directed by: Brock Humphrey
Starring: Ariana Guerra / Oryan Landa / Sal Rastegar / Bobby Hernandez / Christopher Alvarenga
IMDB Rating: 3.8
IMDB URL: http://www.imdb.com/title/tt4866214/
Plot:
Set in the near future where humanoid robots are common in society, the mob reprograms a female android to think and feel in order to use it as a contract killer. This has dangerous consequences as she develops a relationship with her creator while also slowly becoming a murderous psychopath.

Video
ID                                       : 1
Format                                   : AVC
Format/Info                              : Advanced Video Codec
Format profile                           : [email protected]
Format settings                          : CABAC / 5 Ref Frames
Format settings, CABAC                   : Yes
Format settings, ReFrames                : 5 frames
Codec ID                                 : V_MPEG4/ISO/AVC
Duration                                 : 1 h 10 min
Bit rate                                 : 4 487 kb/s
Width                                    : 1 920 pixels
Height                                   : 776 pixels
Display aspect ratio                     : 2.474
Frame rate mode                          : Constant
Frame rate                               : 23.976 (23976/1000) FPS
Color space                              : YUV
Chroma subsampling                       : 4:2:0
Bit depth                                : 8 bits
Scan type                                : Progressive
Bits/(Pixel*Frame)                       : 0.126
Stream size                              : 2.20 GiB (92%)
Title                                    : Mind.and.Machine.2017.1080p.WEB-DL.DD5.1.H264-FGT
Language                                 : English
Default                                  : Yes
Forced                                   : No
Color range                              : Limited
Color primaries                          : BT.709
Transfer characteristics                 : BT.709
Matrix coefficients                      : BT.709

Audio
ID                                       : 2
Format                                   : AC-3
Format/Info                              : Audio Coding 3
Codec ID                                 : A_AC3
Duration                                 : 1 h 10 min
Bit rate mode                            : Constant
Bit rate                                 : 384 kb/s
Channel(s)                               : 6 channels
Channel positions                        : Front: L C R, Side: L R, LFE
Sampling rate                            : 48.0 kHz
Frame rate                               : 31.250 FPS (1536 SPF)
Bit depth                                : 16 bits
Compression mode                         : Lossy
Delay relative to video                  : -42 ms
Stream size                              : 193 MiB (8%)
Title                                    : Mind.and.Machine.2017.1080p.WEB-DL.DD5.1.H264-FGT
Language                                 : English
Service kind                             : Complete Main
Default                                  : Yes
Forced                                   : No

Menu
00:00:00.000                             : en:01
00:05:13.000                             : en:02
00:12:51.000                             : en:03
00:16:45.000                             : en:04
00:23:11.000                             : en:05
00:29:20.000                             : en:06
00:36:37.000                             : en:07
00:41:38.000                             : en:08
00:48:12.000                             : en:09
00:52:17.000                             : en:10
00:59:04.000                             : en:11
01:04:00.000                             : en:12


Screenshots



Download

https://subyshare.com/nlnssgdghc6h/Mind.and.Machine.2017.720p.WEB-DL.DD5.1.part1.rar.html
https://subyshare.com/mwaijlvit1kp/Mind.and.Machine.2017.720p.WEB-DL.DD5.1.part2.rar.html