Maze Runner The Death Cure 2018 1080p WEB-DL DD5.1 H264-FGT

Title: Maze Runner: The Death Cure
Year: 2018
Time: 141 min
Genre: Action / Sci-Fi / Thriller
Directed by: Wes Ball
Starring: Dylan O’Brien / Ki Hong Lee / Kaya Scodelario / Thomas Brodie-Sangster / Dexter Darden
IMDB Rating: 6.6
IMDB URL: http://www.imdb.com/title/tt4500922/
Plot:
In the epic finale to The Maze Runner Saga, Thomas leads his group of escaped Gladers on their final and most dangerous mission yet. To save their friends, they must break into the legendary last city, a WCKD controlled labyrinth that may turn out to be the deadliest maze of all. Anyone who makes it out alive will get the answers to the questions the Gladers have been asking since they first arrived in the maze. Will Thomas and the crew make it out alive? Or will Ava Paige get her way?

Video
ID                                       : 1
Format                                   : AVC
Format/Info                              : Advanced Video Codec
Format profile                           : [email protected]
Format settings                          : CABAC / 5 Ref Frames
Format settings, CABAC                   : Yes
Format settings, ReFrames                : 5 frames
Codec ID                                 : V_MPEG4/ISO/AVC
Duration                                 : 2 h 23 min
Bit rate                                 : 4 547 kb/s
Width                                    : 1 920 pixels
Height                                   : 804 pixels
Display aspect ratio                     : 2.40:1
Frame rate mode                          : Constant
Frame rate                               : 23.976 (24000/1001) FPS
Color space                              : YUV
Chroma subsampling                       : 4:2:0
Bit depth                                : 8 bits
Scan type                                : Progressive
Bits/(Pixel*Frame)                       : 0.123
Stream size                              : 4.57 GiB (92%)
Title                                    : Maze.Runner.The.Death.Cure.2017.1080p.WEB-DL.DD5.1.H264-FGT
Language                                 : English
Default                                  : Yes
Forced                                   : No
Color range                              : Limited
Color primaries                          : BT.709
Transfer characteristics                 : BT.709
Matrix coefficients                      : BT.709

Audio
ID                                       : 2
Format                                   : AC-3
Format/Info                              : Audio Coding 3
Codec ID                                 : A_AC3
Duration                                 : 2 h 23 min
Bit rate mode                            : Constant
Bit rate                                 : 384 kb/s
Channel(s)                               : 6 channels
Channel positions                        : Front: L C R, Side: L R, LFE
Sampling rate                            : 48.0 kHz
Frame rate                               : 31.250 FPS (1536 SPF)
Bit depth                                : 16 bits
Compression mode                         : Lossy
Stream size                              : 395 MiB (8%)
Title                                    : Maze.Runner.The.Death.Cure.2017.1080p.WEB-DL.DD5.1.H264-FGT
Language                                 : English
Service kind                             : Complete Main
Default                                  : Yes
Forced                                   : No

Menu
00:00:00.000                             : en:Chapter 01
00:11:30.607                             : en:Chapter 02
00:15:58.750                             : en:Chapter 03
00:20:07.456                             : en:Chapter 04
00:24:33.889                             : en:Chapter 05
00:30:39.545                             : en:Chapter 06
00:36:46.328                             : en:Chapter 07
00:43:14.340                             : en:Chapter 08
00:48:05.338                             : en:Chapter 09
00:55:16.394                             : en:Chapter 10
01:02:41.921                             : en:Chapter 11
01:07:13.484                             : en:Chapter 12
01:11:55.057                             : en:Chapter 13
01:15:47.163                             : en:Chapter 14
01:23:19.322                             : en:Chapter 15
01:29:44.414                             : en:Chapter 16
01:33:59.585                             : en:Chapter 17
01:40:08.787                             : en:Chapter 18
01:43:32.073                             : en:Chapter 19
01:53:37.636                             : en:Chapter 20
01:59:42.875                             : en:Chapter 21
02:04:48.387                             : en:Chapter 22
02:10:02.075                             : en:Chapter 23
02:18:02.846                             : en:Chapter 24

Screenshots



Download

https://subyshare.com/r9b77gpjz5ev/Maze.Runner.The.Death.Cure.2017.1080p.WEB-DL.DD5.1.part1.rar.html
https://subyshare.com/1z2md33zzqk5/Maze.Runner.The.Death.Cure.2017.1080p.WEB-DL.DD5.1.part2.rar.html
https://subyshare.com/l42a6maz44o2/Maze.Runner.The.Death.Cure.2017.1080p.WEB-DL.DD5.1.part3.rar.html
https://subyshare.com/knnwhpizl8l3/Maze.Runner.The.Death.Cure.2017.1080p.WEB-DL.DD5.1.part4.rar.html