Los Angeles Overnight 2018 1080p WEB-DL AAC2.0 H264-FGT

Title: Los Angeles Overnight
Year: 2018
Time: 93 min
Genre: Thriller / Thriller
Directed by: Michael Chrisoulakis
Starring: JamieLee Ackerman / Joel Anderson / Dan Balcaban / Julian Bane / Rafaella Biscayn
IMDB Rating: 6.5
IMDB URL: http://www.imdb.com/title/tt4374864/
Plot:
After years of futile struggle on L.A.’s grueling audition circuit, would-be actress PRISCILLA ANDERS is bitterly contemplating a permanent return to her humdrum hometown-until one fateful morning in the diner where she waitresses. When Priscilla overhears seedy regulars discuss a bizarre riddle that hints at hidden loot, she recruits the lovelorn mechanic BENNY to help crack the code that could fund her Hollywood ambitions. But as the pair encounter a host of colorful-but-dangerous criminals it becomes clear the loot is hot, hefty, and blood-soaked. Written by Guy J. Jackson

Video
ID                                       : 1
Format                                   : AVC
Format/Info                              : Advanced Video Codec
Format profile                           : [email protected]
Format settings                          : CABAC / 5 Ref Frames
Format settings, CABAC                   : Yes
Format settings, ReFrames                : 5 frames
Codec ID                                 : V_MPEG4/ISO/AVC
Duration                                 : 1 h 32 min
Bit rate                                 : 4 525 kb/s
Width                                    : 1 920 pixels
Height                                   : 812 pixels
Display aspect ratio                     : 2.35:1
Frame rate mode                          : Constant
Frame rate                               : 23.976 (23976/1000) FPS
Color space                              : YUV
Chroma subsampling                       : 4:2:0
Bit depth                                : 8 bits
Scan type                                : Progressive
Bits/(Pixel*Frame)                       : 0.121
Stream size                              : 2.93 GiB (97%)
Title                                    : Los.Angeles.Overnight.2018.1080p.WEB-DL.AAC2.0.H264-FGT
Language                                 : English
Default                                  : Yes
Forced                                   : No
Color range                              : Limited
Color primaries                          : BT.709
Transfer characteristics                 : BT.709
Matrix coefficients                      : BT.709

Audio
ID                                       : 2
Format                                   : AAC
Format/Info                              : Advanced Audio Codec
Format profile                           : LC
Codec ID                                 : A_AAC-2
Duration                                 : 1 h 32 min
Bit rate                                 : 125 kb/s
Channel(s)                               : 2 channels
Channel positions                        : Front: L R
Sampling rate                            : 48.0 kHz
Frame rate                               : 46.875 FPS (1024 SPF)
Compression mode                         : Lossy
Delay relative to video                  : -42 ms
Stream size                              : 82.8 MiB (3%)
Title                                    : Los.Angeles.Overnight.2018.1080p.WEB-DL.AAC2.0.H264-FGT
Language                                 : English
Default                                  : Yes
Forced                                   : No

Text
ID                                       : 3
Format                                   : UTF-8
Codec ID                                 : S_TEXT/UTF8
Codec ID/Info                            : UTF-8 Plain Text
Duration                                 : 1 h 30 min
Bit rate                                 : 44 b/s
Count of elements                        : 1185
Stream size                              : 29.4 KiB (0%)
Language                                 : English
Default                                  : Yes
Forced                                   : No

Menu
00:00:00.000                             : en:1
00:11:04.247                             : en:2
00:23:33.746                             : en:3
00:34:48.170                             : en:4
00:47:23.592                             : en:5
00:58:10.614                             : en:6
01:10:44.701                             : en:7
01:21:09.283                             : en:8
01:30:45.901                             : en:9


Screenshots



Download

https://subyshare.com/qhze1mjc09v0/Los.Angeles.Overnight.2018.1080p.WEB-DL.AAC2.0.part1.rar.html
https://subyshare.com/00lvf8plrqmn/Los.Angeles.Overnight.2018.1080p.WEB-DL.AAC2.0.part2.rar.html
https://subyshare.com/e6g97o0usgsa/Los.Angeles.Overnight.2018.1080p.WEB-DL.AAC2.0.part3.rar.html