Looking Glass 2018 720p WEB-DL DD5.1 H264-FGT

Title: Looking Glass
Year: 2018
Time: 103 min
Genre: Thriller / Thriller
Directed by: Tim Hunter
Starring: Nicolas Cage / Robin Tunney / Marc Blucas / Jacque Gray / Kassia Conway
IMDB Rating: 4.6
IMDB URL: http://www.imdb.com/title/tt6083648/
Plot:
A couple buy a desert motel where they find that strange, mysterious events occur.

Video
ID                                       : 1
Format                                   : AVC
Format/Info                              : Advanced Video Codec
Format profile                           : [email protected]
Format settings                          : 2 Ref Frames
Format settings, CABAC                   : No
Format settings, ReFrames                : 2 frames
Codec ID                                 : V_MPEG4/ISO/AVC
Duration                                 : 1 h 43 min
Bit rate                                 : 4 079 kb/s
Width                                    : 1 280 pixels
Height                                   : 720 pixels
Display aspect ratio                     : 16:9
Frame rate mode                          : Constant
Frame rate                               : 23.976 (23976/1000) FPS
Color space                              : YUV
Chroma subsampling                       : 4:2:0
Bit depth                                : 8 bits
Scan type                                : Progressive
Bits/(Pixel*Frame)                       : 0.185
Stream size                              : 2.95 GiB (91%)
Title                                    : Looking.Glass.2018.720p.WEB-DL.DD5.1.H264-FGT
Language                                 : English
Default                                  : Yes
Forced                                   : No
Color range                              : Limited
Color primaries                          : BT.709
Transfer characteristics                 : BT.709
Matrix coefficients                      : BT.709

Audio
ID                                       : 2
Format                                   : AC-3
Format/Info                              : Audio Coding 3
Codec ID                                 : A_AC3
Duration                                 : 1 h 43 min
Bit rate mode                            : Constant
Bit rate                                 : 384 kb/s
Channel(s)                               : 6 channels
Channel positions                        : Front: L C R, Side: L R, LFE
Sampling rate                            : 48.0 kHz
Frame rate                               : 31.250 FPS (1536 SPF)
Bit depth                                : 16 bits
Compression mode                         : Lossy
Delay relative to video                  : -42 ms
Stream size                              : 285 MiB (9%)
Title                                    : Looking.Glass.2018.720p.WEB-DL.DD5.1.H264-FGT
Language                                 : English
Service kind                             : Complete Main
Default                                  : Yes
Forced                                   : No

Text
ID                                       : 3
Format                                   : UTF-8
Codec ID                                 : S_TEXT/UTF8
Codec ID/Info                            : UTF-8 Plain Text
Duration                                 : 1 h 37 min
Bit rate                                 : 39 b/s
Count of elements                        : 963
Stream size                              : 28.4 KiB (0%)
Language                                 : English
Default                                  : Yes
Forced                                   : No

Menu
00:00:00.000                             : en:1
00:06:49.617                             : en:2
00:13:43.072                             : en:3
00:20:50.624                             : en:4
00:25:26.191                             : en:5
00:32:08.760                             : en:6
00:40:34.432                             : en:7
00:45:31.437                             : en:8
00:53:30.207                             : en:9
00:58:12.572                             : en:10
01:05:08.112                             : en:11
01:11:04.760                             : en:12
01:18:03.095                             : en:13
01:21:56.453                             : en:14
01:27:59.774                             : en:15
01:34:08.309                             : en:16

Screenshots







Download

https://subyshare.com/16kbslzhuzfx/Looking.Glass.2018.720p.WEB-DL.DD5.1.part1.rar.html
https://subyshare.com/h1mvhu02u7la/Looking.Glass.2018.720p.WEB-DL.DD5.1.part2.rar.html
https://subyshare.com/86s08zwu7nia/Looking.Glass.2018.720p.WEB-DL.DD5.1.part3.rar.html

Leave a Reply

Your email address will not be published. Required fields are marked *