Live or Die in La Honda 2017 1080p WEB-DL AAC2.0 H264-FGT

Title: Live or Die in La Honda
Year: 2017
Time: 80 min
Genre: Crime / Crime
Directed by: Jeff Hammer
Starring: Blake Shields / Lili Bordan / Bernard Curry / Mercy Malick / David Fine
IMDB Rating: 5.2
IMDB URL: http://www.imdb.com/title/tt4768592/
Plot:
Blake Baker receives a call from a past lover asking him to help find her missing brother. Once he arrives in La Honda, he learns the task is more dangerous than she led him to believe. A modern-day film noir.

Video
ID                                       : 1
Format                                   : AVC
Format/Info                              : Advanced Video Codec
Format profile                           : [email protected]
Format settings                          : CABAC / 5 Ref Frames
Format settings, CABAC                   : Yes
Format settings, ReFrames                : 5 frames
Codec ID                                 : V_MPEG4/ISO/AVC
Duration                                 : 1 h 20 min
Bit rate                                 : 4 596 kb/s
Width                                    : 1 920 pixels
Height                                   : 804 pixels
Display aspect ratio                     : 2.40:1
Frame rate mode                          : Constant
Frame rate                               : 23.976 (24000/1001) FPS
Color space                              : YUV
Chroma subsampling                       : 4:2:0
Bit depth                                : 8 bits
Scan type                                : Progressive
Bits/(Pixel*Frame)                       : 0.124
Stream size                              : 2.58 GiB (97%)
Title                                    : Live.or.Die.in.La.Honda.2017.1080p.WEB-DL.AAC2.0.H264-FGT
Language                                 : English
Default                                  : Yes
Forced                                   : No
Color range                              : Limited
Color primaries                          : BT.709
Transfer characteristics                 : BT.709
Matrix coefficients                      : BT.709

Audio
ID                                       : 2
Format                                   : AAC
Format/Info                              : Advanced Audio Codec
Format profile                           : LC
Codec ID                                 : A_AAC-2
Duration                                 : 1 h 20 min
Bit rate                                 : 125 kb/s
Channel(s)                               : 2 channels
Channel positions                        : Front: L R
Sampling rate                            : 48.0 kHz
Frame rate                               : 46.875 FPS (1024 SPF)
Compression mode                         : Lossy
Delay relative to video                  : -42 ms
Stream size                              : 72.0 MiB (3%)
Title                                    : Live.or.Die.in.La.Honda.2017.1080p.WEB-DL.AAC2.0.H264-FGT
Language                                 : English
Default                                  : Yes
Forced                                   : No

Text
ID                                       : 3
Format                                   : UTF-8
Codec ID                                 : S_TEXT/UTF8
Codec ID/Info                            : UTF-8 Plain Text
Duration                                 : 1 h 14 min
Bit rate                                 : 41 b/s
Count of elements                        : 848
Stream size                              : 22.6 KiB (0%)
Language                                 : English
Default                                  : Yes
Forced                                   : No

Menu
00:00:00.000                             : en:1
00:10:50.108                             : en:2
00:21:47.473                             : en:3
00:33:42.521                             : en:4
00:43:45.707                             : en:5
00:57:51.469                             : en:6
01:08:40.242                             : en:7
01:16:20.201                             : en:8

Screenshots



Download

https://subyshare.com/2xm87sh7vzd2/Live.or.Die.in.La.Honda.2017.1080p.WEB-DL.AAC2.0.part1.rar.html
https://subyshare.com/tvsunigaxnwc/Live.or.Die.in.La.Honda.2017.1080p.WEB-DL.AAC2.0.part2.rar.html