Life of the Party 2018 1080p WEB-DL DD5.1 H264-FGT

Title: Life of the Party
Year: 2018
Time: 105 min
Genre: Comedy
Directed by: Ben Falcone
Starring: Gillian Jacobs / Melissa McCarthy / Debby Ryan / Adria Arjona / Julie Bowen
IMDB Rating: 5.5
IMDB URL: http://www.imdb.com/title/tt5619332/
Plot:
When her husband suddenly dumps her, longtime dedicated housewife Deanna turns regret into re-set by going back to college – landing in the same class and school as her daughter, who’s not entirely sold on the idea. Plunging headlong into the campus experience, the increasingly outspoken Deanna — now Dee Rock — embraces freedom, fun, and frat boys on her own terms, finding her true self in a senior year no one ever expected. Written by Warner Bros. Pictures

Video
ID                                       : 1
Format                                   : AVC
Format/Info                              : Advanced Video Codec
Format profile                           : [email protected]
Format settings                          : CABAC / 5 Ref Frames
Format settings, CABAC                   : Yes
Format settings, ReFrames                : 5 frames
Codec ID                                 : V_MPEG4/ISO/AVC
Duration                                 : 1 h 44 min
Bit rate                                 : 4 546 kb/s
Width                                    : 1 912 pixels
Height                                   : 792 pixels
Display aspect ratio                     : 2.40:1
Frame rate mode                          : Constant
Frame rate                               : 23.976 FPS
Color space                              : YUV
Chroma subsampling                       : 4:2:0
Bit depth                                : 8 bits
Scan type                                : Progressive
Bits/(Pixel*Frame)                       : 0.125
Stream size                              : 3.33 GiB (92%)
Title                                    : Life.of.the.Party.2018.1080p.WEB-DL.DD5.1.H264-FGT
Language                                 : English
Default                                  : Yes
Forced                                   : No
Color range                              : Limited
Color primaries                          : BT.709
Transfer characteristics                 : BT.709
Matrix coefficients                      : BT.709

Audio
ID                                       : 2
Format                                   : AC-3
Format/Info                              : Audio Coding 3
Codec ID                                 : A_AC3
Duration                                 : 1 h 44 min
Bit rate mode                            : Constant
Bit rate                                 : 384 kb/s
Channel(s)                               : 6 channels
Channel positions                        : Front: L C R, Side: L R, LFE
Sampling rate                            : 48.0 kHz
Frame rate                               : 31.250 FPS (1536 SPF)
Bit depth                                : 16 bits
Compression mode                         : Lossy
Stream size                              : 288 MiB (8%)
Title                                    : Life.of.the.Party.2018.1080p.WEB-DL.DD5.1.H264-FGT
Language                                 : English
Service kind                             : Complete Main
Default                                  : Yes
Forced                                   : No

Menu
00:00:00.000                             : en:1
00:11:50.000                             : en:2
00:20:12.000                             : en:3
00:32:38.000                             : en:4
00:43:27.000                             : en:5
00:52:31.000                             : en:6
01:03:30.000                             : en:7
01:13:37.000                             : en:8
01:25:29.000                             : en:9
01:39:39.000                             : en:10


Screenshots



Download

https://subyshare.com/arrrwtf17f8r/Life.of.the.Party.2018.1080p.WEB-DL.DD5.1.part1.rar.html
https://subyshare.com/uvj2h8qe6xzt/Life.of.the.Party.2018.1080p.WEB-DL.DD5.1.part2.rar.html
https://subyshare.com/1gjni49j8bap/Life.of.the.Party.2018.1080p.WEB-DL.DD5.1.part3.rar.html